  0
SECTION
  2
HEADER
  9
$ACADVER
  1
AC1014
  9
$ACADMAINTVER
 70
       1
  9
$DWGCODEPAGE
  3
ANSI_1252
  9
$INSBASE
 10
0.0
 20
0.0
 30
0.0
  9
$EXTMIN
 10
-174.50934886
 20
-49.57596708
 30
0.0
  9
$EXTMAX
 10
478.99754511
 20
410.83124609
 30
0.0
  9
$LIMMIN
 10
0.0
 20
0.0
  9
$LIMMAX
 10
600.0
 20
400.0
  9
$ORTHOMODE
 70
       0
  9
$REGENMODE
 70
       1
  9
$FILLMODE
 70
       1
  9
$QTEXTMODE
 70
       0
  9
$MIRRTEXT
 70
       1
  9
$DRAGMODE
 70
       2
  9
$LTSCALE
 40
1.0
  9
$OSMODE
 70
       0
  9
$ATTMODE
 70
       1
  9
$TEXTSIZE
 40
2.5
  9
$TRACEWID
 40
1.0
  9
$TEXTSTYLE
  7
STANDARD
  9
$CLAYER
  8
0
  9
$CELTYPE
  6
BYLAYER
  9
$CECOLOR
 62
     256
  9
$CELTSCALE
 40
1.0
  9
$DELOBJ
 70
       1
  9
$DISPSILH
 70
       0
  9
$DIMSCALE
 40
1.0
  9
$DIMASZ
 40
2.5
  9
$DIMEXO
 40
0.625
  9
$DIMDLI
 40
7.0
  9
$DIMRND
 40
0.0
  9
$DIMDLE
 40
0.0
  9
$DIMEXE
 40
1.25
  9
$DIMTP
 40
0.0
  9
$DIMTM
 40
0.0
  9
$DIMTXT
 40
5.0
  9
$DIMCEN
 40
2.5
  9
$DIMTSZ
 40
0.0
  9
$DIMTOL
 70
       0
  9
$DIMLIM
 70
       0
  9
$DIMTIH
 70
       0
  9
$DIMTOH
 70
       0
  9
$DIMSE1
 70
       0
  9
$DIMSE2
 70
       0
  9
$DIMTAD
 70
       1
  9
$DIMZIN
 70
       8
  9
$DIMBLK
  1

  9
$DIMASO
 70
       1
  9
$DIMSHO
 70
       1
  9
$DIMPOST
  1

  9
$DIMAPOST
  1

  9
$DIMALT
 70
       0
  9
$DIMALTD
 70
       3
  9
$DIMALTF
 40
0.03937008
  9
$DIMLFAC
 40
1.0
  9
$DIMTOFL
 70
       1
  9
$DIMTVP
 40
0.0
  9
$DIMTIX
 70
       0
  9
$DIMSOXD
 70
       0
  9
$DIMSAH
 70
       0
  9
$DIMBLK1
  1

  9
$DIMBLK2
  1

  9
$DIMSTYLE
  2
ISO-25
  9
$DIMCLRD
 70
       0
  9
$DIMCLRE
 70
       0
  9
$DIMCLRT
 70
       0
  9
$DIMTFAC
 40
1.0
  9
$DIMGAP
 40
0.625
  9
$DIMJUST
 70
       0
  9
$DIMSD1
 70
       0
  9
$DIMSD2
 70
       0
  9
$DIMTOLJ
 70
       0
  9
$DIMTZIN
 70
       8
  9
$DIMALTZ
 70
       0
  9
$DIMALTTZ
 70
       0
  9
$DIMFIT
 70
       3
  9
$DIMUPT
 70
       0
  9
$DIMUNIT
 70
       2
  9
$DIMDEC
 70
       1
  9
$DIMTDEC
 70
       1
  9
$DIMALTU
 70
       2
  9
$DIMALTTD
 70
       3
  9
$DIMTXSTY
  7
STANDARD
  9
$DIMAUNIT
 70
       0
  9
$LUNITS
 70
       2
  9
$LUPREC
 70
       4
  9
$SKETCHINC
 40
1.0
  9
$FILLETRAD
 40
10.0
  9
$AUNITS
 70
       0
  9
$AUPREC
 70
       0
  9
$MENU
  1
.
  9
$ELEVATION
 40
0.0
  9
$PELEVATION
 40
0.0
  9
$THICKNESS
 40
0.0
  9
$LIMCHECK
 70
       0
  9
$BLIPMODE
 70
       0
  9
$CHAMFERA
 40
10.0
  9
$CHAMFERB
 40
10.0
  9
$CHAMFERC
 40
20.0
  9
$CHAMFERD
 40
0.0
  9
$SKPOLY
 70
       0
  9
$TDCREATE
 40
2451944.058466319
  9
$TDUPDATE
 40
2451960.496157060
  9
$TDINDWG
 40
0.7962894676
  9
$TDUSRTIMER
 40
0.7962894676
  9
$USRTIMER
 70
       1
  9
$ANGBASE
 50
0.0
  9
$ANGDIR
 70
       0
  9
$PDMODE
 70
       0
  9
$PDSIZE
 40
0.0
  9
$PLINEWID
 40
0.0
  9
$COORDS
 70
       1
  9
$SPLFRAME
 70
       0
  9
$SPLINETYPE
 70
       6
  9
$SPLINESEGS
 70
       8
  9
$ATTDIA
 70
       0
  9
$ATTREQ
 70
       1
  9
$HANDLING
 70
       1
  9
$HANDSEED
  5
1AD5
  9
$SURFTAB1
 70
       6
  9
$SURFTAB2
 70
       6
  9
$SURFTYPE
 70
       6
  9
$SURFU
 70
       6
  9
$SURFV
 70
       6
  9
$UCSNAME
  2

  9
$UCSORG
 10
0.0
 20
0.0
 30
0.0
  9
$UCSXDIR
 10
1.0
 20
0.0
 30
0.0
  9
$UCSYDIR
 10
0.0
 20
1.0
 30
0.0
  9
$PUCSNAME
  2

  9
$PUCSORG
 10
0.0
 20
0.0
 30
0.0
  9
$PUCSXDIR
 10
1.0
 20
0.0
 30
0.0
  9
$PUCSYDIR
 10
0.0
 20
1.0
 30
0.0
  9
$USERI1
 70
       0
  9
$USERI2
 70
       0
  9
$USERI3
 70
       0
  9
$USERI4
 70
       0
  9
$USERI5
 70
       0
  9
$USERR1
 40
0.0
  9
$USERR2
 40
0.0
  9
$USERR3
 40
0.0
  9
$USERR4
 40
0.0
  9
$USERR5
 40
0.0
  9
$WORLDVIEW
 70
       1
  9
$SHADEDGE
 70
       3
  9
$SHADEDIF
 70
      70
  9
$TILEMODE
 70
       1
  9
$MAXACTVP
 70
      48
  9
$PINSBASE
 10
0.0
 20
0.0
 30
0.0
  9
$PLIMCHECK
 70
       0
  9
$PEXTMIN
 10
1.61821159
 20
0.93358526
 30
-0.00000003
  9
$PEXTMAX
 10
10.10139444
 20
6.92532356
 30
0.00000008
  9
$PLIMMIN
 10
-0.15069444
 20
-0.15069415
  9
$PLIMMAX
 10
11.54374963
 20
8.11875011
  9
$UNITMODE
 70
       0
  9
$VISRETAIN
 70
       1
  9
$PLINEGEN
 70
       0
  9
$PSLTSCALE
 70
       1
  9
$TREEDEPTH
 70
    3020
  9
$PICKSTYLE
 70
       1
  9
$CMLSTYLE
  2
STANDARD
  9
$CMLJUST
 70
       0
  9
$CMLSCALE
 40
3.0
  9
$PROXYGRAPHICS
 70
       1
  9
$MEASUREMENT
 70
       0
  0
ENDSEC
  0
SECTION
  2
CLASSES
  0
CLASS
  1
ACDBDICTIONARYWDFLT
  2
AcDbDictionaryWithDefault
  3
"AutoCAD 2000"
 90
        1
280
       0
281
       0
  0
CLASS
  1
ACDBPLACEHOLDER
  2
AcDbPlaceHolder
  3
"AutoCAD 2000"
 90
        1
280
       0
281
       0
  0
CLASS
  1
LAYOUT
  2
AcDbLayout
  3
"AutoCAD 2000"
 90
        1
280
       0
281
       0
  0
CLASS
  1
LONG_TRANSACTION
  2
AcDbLongTransaction
  3
AutoCAD 2000
 90
        0
280
       0
281
       0
  0
CLASS
  1
LWPOLYLINE
  2
AcDbPolyline
  3
"AutoCAD"
 90
        0
280
       0
281
       1
  0
CLASS
  1
HATCH
  2
AcDbHatch
  3
"ACAD_SEDONA"
 90
        0
280
       0
281
       1
  0
CLASS
  1
XRECORD
  2
AcDbXrecord
  3
"<Built In>"
 90
        0
280
       0
281
       0
  0
CLASS
  1
LONG_TRANSACTION
  2
AcDbLongTransaction
  3
AutoCAD 2000
 90
        0
280
       0
281
       0
  0
CLASS
  1
LWPOLYLINE
  2
AcDbPolyline
  3
"AutoCAD"
 90
        0
280
       0
281
       1
  0
CLASS
  1
HATCH
  2
AcDbHatch
  3
"ACAD_SEDONA"
 90
        0
280
       0
281
       1
  0
CLASS
  1
XRECORD
  2
AcDbXrecord
  3
"<Built In>"
 90
        0
280
       0
281
       0
  0
CLASS
  1
IMAGE
  2
AcDbRasterImage
  3
ISM
 90
      127
280
       0
281
       1
  0
CLASS
  1
OLE2FRAME
  2
AcDbOle2Frame
  3
""
 90
        0
280
       0
281
       1
  0
CLASS
  1
DICTIONARYVAR
  2
AcDbDictionaryVar
  3
"AutoCAD"
 90
        0
280
       0
281
       0
  0
CLASS
  1
RASTERVARIABLES
  2
AcDbRasterVariables
  3
ISM
 90
        0
280
       0
281
       0
  0
CLASS
  1
IMAGEDEF
  2
AcDbRasterImageDef
  3
ISM
 90
        0
280
       0
281
       0
  0
CLASS
  1
IMAGEDEF_REACTOR
  2
AcDbRasterImageDefReactor
  3
ISM
 90
        1
280
       0
281
       0
  0
CLASS
  1
IDBUFFER
  2
AcDbIdBuffer
  3
"Acad"
 90
        0
280
       0
281
       0
  0
CLASS
  1
SPATIAL_FILTER
  2
AcDbSpatialFilter
  3
"Acad"
 90
        0
280
       0
281
       0
  0
CLASS
  1
SORTENTSTABLE
  2
AcDbSortentsTable
  3
"AutoCAD"
 90
        0
280
       0
281
       0
  0
CLASS
  1
LAYER_INDEX
  2
AcDbLayerIndex
  3
"Acad"
 90
        0
280
       0
281
       0
  0
CLASS
  1
SPATIAL_INDEX
  2
AcDbSpatialIndex
  3
"Acad"
 90
        0
280
       0
281
       0
  0
CLASS
  1
OBJECT_PTR
  2
CAseDLPNTableRecord
  3
"ASE-LPNTableRecord"
 90
        1
280
       0
281
       0
  0
CLASS
  1
PLOTSETTINGS
  2
AcDbPlotSettings
  3
"AutoCAD 2000"
 90
        1
280
       0
281
       0
  0
CLASS
  1
VBA_PROJECT
  2
AcDbVbaProject
  3
"acadvba"
 90
        1
280
       0
281
       0
  0
CLASS
  1
WIPEOUT
  2
AcDbWipeout
  3
WipeOut|AutoCAD Express Tool|expresstools@autodesk.com
 90
      127
280
       0
281
       1
  0
CLASS
  1
WIPEOUTVARIABLES
  2
AcDbWipeoutVariables
  3
WipeOut|AutoCAD Express Tool|expresstools@autodesk.com
 90
        0
280
       0
281
       0
  0
CLASS
  1
RTEXT
  2
RText
  3
RText|AutoCAD Express Tool|expresstools@autodesk.com
 90
        0
280
       0
281
       1
  0
CLASS
  1
ARCALIGNEDTEXT
  2
AcDbArcAlignedText
  3
ATEXT|AutoCAD Express Tool|expresstools@autodesk.com
 90
        0
280
       0
281
       1
  0
ENDSEC
  0
SECTION
  2
TABLES
  0
TABLE
  2
VPORT
  5
8
100
AcDbSymbolTable
 70
       1
  0
VPORT
  5
1A68
102
{ACAD_XDICTIONARY
360
1A76
102
}
100
AcDbSymbolTableRecord
100
AcDbViewportTableRecord
  2
*ACTIVE
 70
      64
 10
0.0
 20
0.0
 11
1.0
 21
1.0
 12
173.66421502
 22
270.05691778
 13
0.0
 23
0.0
 14
10.0
 24
10.0
 15
10.0
 25
10.0
 16
0.0
 26
0.0
 36
1.0
 17
0.0
 27
0.0
 37
0.0
 40
329.52703752
 41
1.71401869
 42
50.0
 43
0.0
 44
0.0
 50
0.0
 51
0.0
 71
       0
 72
     100
 73
       1
 74
       3
 75
       0
 76
       0
 77
       0
 78
       0
  0
ENDTAB
  0
TABLE
  2
LTYPE
  5
5
100
AcDbSymbolTable
 70
       3
  0
LTYPE
  5
14
100
AcDbSymbolTableRecord
100
AcDbLinetypeTableRecord
  2
BYBLOCK
 70
      64
  3

 72
      65
 73
       0
 40
0.0
  0
LTYPE
  5
15
100
AcDbSymbolTableRecord
100
AcDbLinetypeTableRecord
  2
BYLAYER
 70
      64
  3

 72
      65
 73
       0
 40
0.0
  0
LTYPE
  5
16
102
{ACAD_XDICTIONARY
360
1A72
102
}
100
AcDbSymbolTableRecord
100
AcDbLinetypeTableRecord
  2
CONTINUOUS
 70
      64
  3
Solid line
 72
      65
 73
       0
 40
0.0
  0
ENDTAB
  0
TABLE
  2
LAYER
  5
2
100
AcDbSymbolTable
 70
       2
  0
LAYER
  5
10
100
AcDbSymbolTableRecord
100
AcDbLayerTableRecord
  2
0
 70
      64
 62
       7
  6
CONTINUOUS
  0
LAYER
  5
175
102
{ACAD_XDICTIONARY
360
1A6C
102
}
100
AcDbSymbolTableRecord
100
AcDbLayerTableRecord
  2
DEFPOINTS
 70
      64
 62
       7
  6
CONTINUOUS
  0
ENDTAB
  0
TABLE
  2
STYLE
  5
3
100
AcDbSymbolTable
 70
       1
  0
STYLE
  5
11
102
{ACAD_XDICTIONARY
360
1A74
102
}
100
AcDbSymbolTableRecord
100
AcDbTextStyleTableRecord
  2
STANDARD
 70
      64
 40
0.0
 41
1.0
 50
0.0
 71
       0
 42
2.5
  3
txt
  4

  0
ENDTAB
  0
TABLE
  2
VIEW
  5
6
100
AcDbSymbolTable
 70
       0
  0
ENDTAB
  0
TABLE
  2
UCS
  5
7
100
AcDbSymbolTable
 70
       0
  0
ENDTAB
  0
TABLE
  2
APPID
  5
9
100
AcDbSymbolTable
 70
       1
  0
APPID
  5
12
100
AcDbSymbolTableRecord
100
AcDbRegAppTableRecord
  2
ACAD
 70
      64
  0
ENDTAB
  0
TABLE
  2
DIMSTYLE
  5
A
100
AcDbSymbolTable
 70
       1
  0
DIMSTYLE
105
27
102
{ACAD_XDICTIONARY
360
1AA0
102
}
102
{ACAD_REACTORS
330
174
330
54A
330
5D6
330
6A3
330
7B1
330
7D2
330
893
330
8A0
330
8AD
330
983
330
A42
330
A51
330
A5E
330
A85
330
A9F
330
ABA
330
C0D
330
C1A
330
C65
330
C74
330
C86
330
C93
330
CA2
330
CAF
330
CBC
330
CC9
330
DB1
330
EFD
330
F24
330
10C6
330
115C
330
1178
330
11DB
330
11E8
330
122A
330
1237
330
1244
330
1263
330
1279
330
12F4
330
1301
330
130E
330
131B
330
138F
330
139C
330
13A9
330
13BF
330
13CC
330
1406
330
14EE
330
14FB
330
1508
330
1515
330
1522
330
152F
330
153C
330
1549
330
1556
330
15E5
330
15F2
330
15FF
330
16C3
330
16CF
330
16DC
330
16FB
330
1709
330
1716
330
172C
330
1739
102
}
100
AcDbSymbolTableRecord
100
AcDbDimStyleTableRecord
  2
ISO-25
 70
      64
  3

  4

  5

  6

  7

 40
1.0
 41
2.5
 42
0.625
 43
7.0
 44
1.25
 45
0.0
 46
0.0
 47
0.0
 48
0.0
 71
       0
 72
       0
 73
       0
 74
       0
 75
       0
 76
       0
 77
       1
 78
       8
140
5.0
141
2.5
142
0.0
143
0.03937008
144
1.0
145
0.0
146
1.0
147
0.625
170
       0
171
       3
172
       1
173
       0
174
       0
175
       0
176
       0
177
       0
178
       0
270
       2
271
       1
272
       1
273
       2
274
       3
275
       0
280
       0
281
       0
282
       0
283
       0
284
       8
285
       0
286
       0
287
       3
288
       0
340
11
  0
ENDTAB
  0
TABLE
  2
BLOCK_RECORD
  5
1
100
AcDbSymbolTable
 70
      70
  0
BLOCK_RECORD
  5
1F
102
{ACAD_XDICTIONARY
360
198D
102
}
100
AcDbSymbolTableRecord
100
AcDbBlockTableRecord
  2
*MODEL_SPACE
  0
BLOCK_RECORD
  5
23
102
{ACAD_XDICTIONARY
360
198F
102
}
100
AcDbSymbolTableRecord
100
AcDbBlockTableRecord
  2
*PAPER_SPACE
  0
BLOCK_RECORD
  5
176
100
AcDbSymbolTableRecord
100
AcDbBlockTableRecord
  2
*D1
  0
BLOCK_RECORD
  5
54B
100
AcDbSymbolTableRecord
100
AcDbBlockTableRecord
  2
*D2
  0
BLOCK_RECORD
  5
5D7
100
AcDbSymbolTableRecord
100
AcDbBlockTableRecord
  2
*D3
  0
BLOCK_RECORD
  5
6A4
100
AcDbSymbolTableRecord
100
AcDbBlockTableRecord
  2
*D4
  0
BLOCK_RECORD
  5
7B2
100
AcDbSymbolTableRecord
100
AcDbBlockTableRecord
  2
*D5
  0
BLOCK_RECORD
  5
7D3
100
AcDbSymbolTableRecord
100
AcDbBlockTableRecord
  2
*D6
  0
BLOCK_RECORD
  5
894
100
AcDbSymbolTableRecord
100
AcDbBlockTableRecord
  2
*D7
  0
BLOCK_RECORD
  5
8A1
100
AcDbSymbolTableRecord
100
AcDbBlockTableRecord
  2
*D8
  0
BLOCK_RECORD
  5
8AE
100
AcDbSymbolTableRecord
100
AcDbBlockTableRecord
  2
*D9
  0
BLOCK_RECORD
  5
984
100
AcDbSymbolTableRecord
100
AcDbBlockTableRecord
  2
*D10
  0
BLOCK_RECORD
  5
A43
100
AcDbSymbolTableRecord
100
AcDbBlockTableRecord
  2
*D11
  0
BLOCK_RECORD
  5
A52
100
AcDbSymbolTableRecord
100
AcDbBlockTableRecord
  2
*D12
  0
BLOCK_RECORD
  5
A5F
100
AcDbSymbolTableRecord
100
AcDbBlockTableRecord
  2
*D13
  0
BLOCK_RECORD
  5
A86
100
AcDbSymbolTableRecord
100
AcDbBlockTableRecord
  2
*D14
  0
BLOCK_RECORD
  5
AA0
100
AcDbSymbolTableRecord
100
AcDbBlockTableRecord
  2
*D15
  0
BLOCK_RECORD
  5
ABB
100
AcDbSymbolTableRecord
100
AcDbBlockTableRecord
  2
*D16
  0
BLOCK_RECORD
  5
C0E
100
AcDbSymbolTableRecord
100
AcDbBlockTableRecord
  2
*D17
  0
BLOCK_RECORD
  5
C1B
100
AcDbSymbolTableRecord
100
AcDbBlockTableRecord
  2
*D18
  0
BLOCK_RECORD
  5
C66
100
AcDbSymbolTableRecord
100
AcDbBlockTableRecord
  2
*D19
  0
BLOCK_RECORD
  5
C75
100
AcDbSymbolTableRecord
100
AcDbBlockTableRecord
  2
*D20
  0
BLOCK_RECORD
  5
C87
100
AcDbSymbolTableRecord
100
AcDbBlockTableRecord
  2
*D21
  0
BLOCK_RECORD
  5
C94
100
AcDbSymbolTableRecord
100
AcDbBlockTableRecord
  2
*D22
  0
BLOCK_RECORD
  5
CA3
100
AcDbSymbolTableRecord
100
AcDbBlockTableRecord
  2
*D23
  0
BLOCK_RECORD
  5
CB0
100
AcDbSymbolTableRecord
100
AcDbBlockTableRecord
  2
*D24
  0
BLOCK_RECORD
  5
CBD
100
AcDbSymbolTableRecord
100
AcDbBlockTableRecord
  2
*D25
  0
BLOCK_RECORD
  5
CCA
100
AcDbSymbolTableRecord
100
AcDbBlockTableRecord
  2
*D26
  0
BLOCK_RECORD
  5
DB2
100
AcDbSymbolTableRecord
100
AcDbBlockTableRecord
  2
*D27
  0
BLOCK_RECORD
  5
EFE
100
AcDbSymbolTableRecord
100
AcDbBlockTableRecord
  2
*D28
  0
BLOCK_RECORD
  5
F25
100
AcDbSymbolTableRecord
100
AcDbBlockTableRecord
  2
*D29
  0
BLOCK_RECORD
  5
10C7
100
AcDbSymbolTableRecord
100
AcDbBlockTableRecord
  2
*D30
  0
BLOCK_RECORD
  5
115D
100
AcDbSymbolTableRecord
100
AcDbBlockTableRecord
  2
*D31
  0
BLOCK_RECORD
  5
1179
100
AcDbSymbolTableRecord
100
AcDbBlockTableRecord
  2
*D32
  0
BLOCK_RECORD
  5
11DC
100
AcDbSymbolTableRecord
100
AcDbBlockTableRecord
  2
*D33
  0
BLOCK_RECORD
  5
11E9
100
AcDbSymbolTableRecord
100
AcDbBlockTableRecord
  2
*D34
  0
BLOCK_RECORD
  5
122B
100
AcDbSymbolTableRecord
100
AcDbBlockTableRecord
  2
*D35
  0
BLOCK_RECORD
  5
1238
100
AcDbSymbolTableRecord
100
AcDbBlockTableRecord
  2
*D36
  0
BLOCK_RECORD
  5
1245
100
AcDbSymbolTableRecord
100
AcDbBlockTableRecord
  2
*D37
  0
BLOCK_RECORD
  5
1264
100
AcDbSymbolTableRecord
100
AcDbBlockTableRecord
  2
*D38
  0
BLOCK_RECORD
  5
127A
100
AcDbSymbolTableRecord
100
AcDbBlockTableRecord
  2
*D39
  0
BLOCK_RECORD
  5
12F5
100
AcDbSymbolTableRecord
100
AcDbBlockTableRecord
  2
*D40
  0
BLOCK_RECORD
  5
1302
100
AcDbSymbolTableRecord
100
AcDbBlockTableRecord
  2
*D41
  0
BLOCK_RECORD
  5
130F
100
AcDbSymbolTableRecord
100
AcDbBlockTableRecord
  2
*D42
  0
BLOCK_RECORD
  5
131C
100
AcDbSymbolTableRecord
100
AcDbBlockTableRecord
  2
*D43
  0
BLOCK_RECORD
  5
1390
100
AcDbSymbolTableRecord
100
AcDbBlockTableRecord
  2
*D44
  0
BLOCK_RECORD
  5
139D
100
AcDbSymbolTableRecord
100
AcDbBlockTableRecord
  2
*D45
  0
BLOCK_RECORD
  5
13AA
100
AcDbSymbolTableRecord
100
AcDbBlockTableRecord
  2
*D46
  0
BLOCK_RECORD
  5
13C0
100
AcDbSymbolTableRecord
100
AcDbBlockTableRecord
  2
*D47
  0
BLOCK_RECORD
  5
13CD
100
AcDbSymbolTableRecord
100
AcDbBlockTableRecord
  2
*D48
  0
BLOCK_RECORD
  5
1407
100
AcDbSymbolTableRecord
100
AcDbBlockTableRecord
  2
*D49
  0
BLOCK_RECORD
  5
14EF
100
AcDbSymbolTableRecord
100
AcDbBlockTableRecord
  2
*D50
  0
BLOCK_RECORD
  5
14FC
100
AcDbSymbolTableRecord
100
AcDbBlockTableRecord
  2
*D51
  0
BLOCK_RECORD
  5
1509
100
AcDbSymbolTableRecord
100
AcDbBlockTableRecord
  2
*D52
  0
BLOCK_RECORD
  5
1516
100
AcDbSymbolTableRecord
100
AcDbBlockTableRecord
  2
*D53
  0
BLOCK_RECORD
  5
1523
100
AcDbSymbolTableRecord
100
AcDbBlockTableRecord
  2
*D54
  0
BLOCK_RECORD
  5
1530
100
AcDbSymbolTableRecord
100
AcDbBlockTableRecord
  2
*D55
  0
BLOCK_RECORD
  5
153D
100
AcDbSymbolTableRecord
100
AcDbBlockTableRecord
  2
*D56
  0
BLOCK_RECORD
  5
154A
100
AcDbSymbolTableRecord
100
AcDbBlockTableRecord
  2
*D57
  0
BLOCK_RECORD
  5
1557
100
AcDbSymbolTableRecord
100
AcDbBlockTableRecord
  2
*D58
  0
BLOCK_RECORD
  5
15E6
100
AcDbSymbolTableRecord
100
AcDbBlockTableRecord
  2
*D59
  0
BLOCK_RECORD
  5
15F3
100
AcDbSymbolTableRecord
100
AcDbBlockTableRecord
  2
*D60
  0
BLOCK_RECORD
  5
1600
100
AcDbSymbolTableRecord
100
AcDbBlockTableRecord
  2
*D61
  0
BLOCK_RECORD
  5
16C4
100
AcDbSymbolTableRecord
100
AcDbBlockTableRecord
  2
*D62
  0
BLOCK_RECORD
  5
16D0
100
AcDbSymbolTableRecord
100
AcDbBlockTableRecord
  2
*D63
  0
BLOCK_RECORD
  5
16DD
100
AcDbSymbolTableRecord
100
AcDbBlockTableRecord
  2
*D64
  0
BLOCK_RECORD
  5
16FC
100
AcDbSymbolTableRecord
100
AcDbBlockTableRecord
  2
*D65
  0
BLOCK_RECORD
  5
170A
100
AcDbSymbolTableRecord
100
AcDbBlockTableRecord
  2
*D66
  0
BLOCK_RECORD
  5
1717
100
AcDbSymbolTableRecord
100
AcDbBlockTableRecord
  2
*D67
  0
BLOCK_RECORD
  5
172D
100
AcDbSymbolTableRecord
100
AcDbBlockTableRecord
  2
*D68
  0
BLOCK_RECORD
  5
173A
100
AcDbSymbolTableRecord
100
AcDbBlockTableRecord
  2
*D69
  0
ENDTAB
  0
ENDSEC
  0
SECTION
  2
BLOCKS
  0
BLOCK
  5
20
100
AcDbEntity
  8
0
100
AcDbBlockBegin
  2
*MODEL_SPACE
 70
      64
 10
0.0
 20
0.0
 30
0.0
  3
*MODEL_SPACE
  1

  0
ENDBLK
  5
21
100
AcDbEntity
  8
0
100
AcDbBlockEnd
  0
BLOCK
  5
24
100
AcDbEntity
 67
       1
  8
0
100
AcDbBlockBegin
  2
*PAPER_SPACE
 70
      64
 10
0.0
 20
0.0
 30
0.0
  3
*PAPER_SPACE
  1

  0
ENDBLK
  5
25
100
AcDbEntity
 67
       1
  8
0
100
AcDbBlockEnd
  0
BLOCK
  5
180
100
AcDbEntity
  8
0
100
AcDbBlockBegin
  2
*D1
 70
      65
 10
0.0
 20
0.0
 30
0.0
  3
*D1
  1

  0
LINE
  5
12E2
100
AcDbEntity
  8
0
 62
       0
100
AcDbLine
 10
0.0
 20
228.47223627
 30
0.0
 11
0.0
 21
405.68433916
 31
0.0
1001
ACAD
1000
RTLwPs
1070
     158
  0
LINE
  5
12E3
100
AcDbEntity
  8
0
 62
       0
100
AcDbLine
 10
400.0
 20
198.125
 30
0.0
 11
400.0
 21
405.68433916
 31
0.0
1001
ACAD
1000
RTLwPs
1070
     158
  0
LINE
  5
12E4
100
AcDbEntity
  8
0
 62
       0
100
AcDbLine
 10
2.5
 20
404.43433916
 30
0.0
 11
397.5
 21
404.43433916
 31
0.0
1001
ACAD
1000
RTLwPs
1070
     158
  0
SOLID
  5
12E5
100
AcDbEntity
  8
0
 62
       0
100
AcDbTrace
 10
2.5
 20
404.85100583
 30
0.0
 11
2.5
 21
404.01767249
 31
0.0
 12
0.0
 22
404.43433916
 32
0.0
 13
0.0
 23
404.43433916
 33
0.0
  0
SOLID
  5
12E6
100
AcDbEntity
  8
0
 62
       0
100
AcDbTrace
 10
397.5
 20
404.85100583
 30
0.0
 11
397.5
 21
404.01767249
 31
0.0
 12
400.0
 22
404.43433916
 32
0.0
 13
400.0
 23
404.43433916
 33
0.0
  0
MTEXT
  5
12E7
100
AcDbEntity
  8
0
 62
       0
100
AcDbMText
 10
200.0
 20
407.55933916
 30
0.0
 40
5.0
 41
0.0
 71
       5
 72
       1
  1
400
1001
ACAD
1000
MTEXTBEGIN
1070
      73
1070
       1
1070
      44
1040
1.0
1070
      74
1070
       0
1000
MTEXTEND
1000
MTEXTBEGIN
1070
      73
1070
       1
1070
      44
1040
1.0
1070
      74
1070
       0
1000
MTEXTEND
  0
POINT
  5
12E8
100
AcDbEntity
  8
DEFPOINTS
 62
       0
100
AcDbPoint
 10
0.0
 20
227.84723627
 30
0.0
  0
POINT
  5
12E9
100
AcDbEntity
  8
DEFPOINTS
 62
       0
100
AcDbPoint
 10
400.0
 20
197.5
 30
0.0
  0
POINT
  5
12EA
100
AcDbEntity
  8
DEFPOINTS
 62
       0
100
AcDbPoint
 10
400.0
 20
404.43433916
 30
0.0
  0
ENDBLK
  5
181
100
AcDbEntity
  8
0
100
AcDbBlockEnd
  0
BLOCK
  5
555
100
AcDbEntity
  8
0
100
AcDbBlockBegin
  2
*D2
 70
      65
 10
0.0
 20
0.0
 30
0.0
  3
*D2
  1

  0
LINE
  5
15DC
100
AcDbEntity
  8
0
 62
       0
100
AcDbLine
 10
0.0
 20
145.1479053
 30
0.0
 11
0.0
 21
302.530478
 31
0.0
1001
ACAD
1000
RTLwPs
1070
     158
  0
LINE
  5
15DD
100
AcDbEntity
  8
0
 62
       0
100
AcDbLine
 10
13.0
 20
273.625
 30
0.0
 11
13.0
 21
302.530478
 31
0.0
1001
ACAD
1000
RTLwPs
1070
     158
  0
LINE
  5
15DE
100
AcDbEntity
  8
0
 62
       0
100
AcDbLine
 10
2.5
 20
301.280478
 30
0.0
 11
10.5
 21
301.280478
 31
0.0
1001
ACAD
1000
RTLwPs
1070
     158
  0
SOLID
  5
15DF
100
AcDbEntity
  8
0
 62
       0
100
AcDbTrace
 10
2.5
 20
301.69714466
 30
0.0
 11
2.5
 21
300.86381133
 31
0.0
 12
0.0
 22
301.280478
 32
0.0
 13
0.0
 23
301.280478
 33
0.0
  0
SOLID
  5
15E0
100
AcDbEntity
  8
0
 62
       0
100
AcDbTrace
 10
10.5
 20
301.69714466
 30
0.0
 11
10.5
 21
300.86381133
 31
0.0
 12
13.0
 22
301.280478
 32
0.0
 13
13.0
 23
301.280478
 33
0.0
  0
MTEXT
  5
15E1
100
AcDbEntity
  8
0
 62
       0
100
AcDbMText
 10
6.5
 20
304.405478
 30
0.0
 40
5.0
 41
0.0
 71
       5
 72
       1
  1
13
1001
ACAD
1000
MTEXTBEGIN
1070
      73
1070
       1
1070
      44
1040
1.0
1070
      74
1070
       0
1000
MTEXTEND
1000
MTEXTBEGIN
1070
      73
1070
       1
1070
      44
1040
1.0
1070
      74
1070
       0
1000
MTEXTEND
  0
POINT
  5
15E2
100
AcDbEntity
  8
DEFPOINTS
 62
       0
100
AcDbPoint
 10
0.0
 20
144.5229053
 30
0.0
  0
POINT
  5
15E3
100
AcDbEntity
  8
DEFPOINTS
 62
       0
100
AcDbPoint
 10
13.0
 20
273.0
 30
0.0
  0
POINT
  5
15E4
100
AcDbEntity
  8
DEFPOINTS
 62
       0
100
AcDbPoint
 10
13.0
 20
301.280478
 30
0.0
  0
ENDBLK
  5
556
100
AcDbEntity
  8
0
100
AcDbBlockEnd
  0
BLOCK
  5
5E1
100
AcDbEntity
  8
0
100
AcDbBlockBegin
  2
*D3
 70
      65
 10
0.0
 20
0.0
 30
0.0
  3
*D3
  1

  0
LINE
  5
164B
100
AcDbEntity
  8
0
 62
       0
100
AcDbLine
 10
-34.97167685
 20
286.0
 30
0.0
 11
-63.09643508
 21
286.0
 31
0.0
1001
ACAD
1000
RTLwPs
1070
     158
  0
LINE
  5
164C
100
AcDbEntity
  8
0
 62
       0
100
AcDbLine
 10
-34.97167685
 20
-0.00608619
 30
0.0
 11
-63.09643508
 21
-0.00608619
 31
0.0
1001
ACAD
1000
RTLwPs
1070
     158
  0
LINE
  5
164D
100
AcDbEntity
  8
0
 62
       0
100
AcDbLine
 10
-61.84643508
 20
283.5
 30
0.0
 11
-61.84643508
 21
2.49391381
 31
0.0
1001
ACAD
1000
RTLwPs
1070
     158
  0
SOLID
  5
164E
100
AcDbEntity
  8
0
 62
       0
100
AcDbTrace
 10
-62.26310175
 20
283.5
 30
0.0
 11
-61.42976842
 21
283.5
 31
0.0
 12
-61.84643508
 22
286.0
 32
0.0
 13
-61.84643508
 23
286.0
 33
0.0
  0
SOLID
  5
164F
100
AcDbEntity
  8
0
 62
       0
100
AcDbTrace
 10
-62.26310175
 20
2.49391381
 30
0.0
 11
-61.42976842
 21
2.49391381
 31
0.0
 12
-61.84643508
 22
-0.00608619
 32
0.0
 13
-61.84643508
 23
-0.00608619
 33
0.0
  0
MTEXT
  5
1650
100
AcDbEntity
  8
0
 62
       0
100
AcDbMText
 10
-64.97143508
 20
142.99695691
 30
0.0
 40
5.0
 41
0.0
 71
       5
 72
       1
  1
286
 11
0.0
 21
1.0
 31
0.0
1001
ACAD
1000
MTEXTBEGIN
1070
      73
1070
       1
1070
      44
1040
1.0
1070
      74
1070
       0
1000
MTEXTEND
1000
MTEXTBEGIN
1070
      73
1070
       1
1070
      44
1040
1.0
1070
      74
1070
       0
1000
MTEXTEND
  0
POINT
  5
1651
100
AcDbEntity
  8
DEFPOINTS
 62
       0
100
AcDbPoint
 10
-34.34667685
 20
286.0
 30
0.0
  0
POINT
  5
1652
100
AcDbEntity
  8
DEFPOINTS
 62
       0
100
AcDbPoint
 10
-34.34667685
 20
-0.00608619
 30
0.0
  0
POINT
  5
1653
100
AcDbEntity
  8
DEFPOINTS
 62
       0
100
AcDbPoint
 10
-61.84643508
 20
-0.00608619
 30
0.0
  0
ENDBLK
  5
5E2
100
AcDbEntity
  8
0
100
AcDbBlockEnd
  0
BLOCK
  5
6AE
100
AcDbEntity
  8
0
100
AcDbBlockBegin
  2
*D4
 70
      65
 10
0.0
 20
0.0
 30
0.0
  3
*D4
  1

  0
LINE
  5
1642
100
AcDbEntity
  8
0
 62
       0
100
AcDbLine
 10
24.375
 20
286.0
 30
0.0
 11
-51.61270479
 21
286.0
 31
0.0
1001
ACAD
1000
RTLwPs
1070
     158
  0
LINE
  5
1643
100
AcDbEntity
  8
0
 62
       0
100
AcDbLine
 10
-10.625
 20
143.0
 30
0.0
 11
-51.61270479
 21
143.0
 31
0.0
1001
ACAD
1000
RTLwPs
1070
     158
  0
LINE
  5
1644
100
AcDbEntity
  8
0
 62
       0
100
AcDbLine
 10
-50.36270479
 20
283.5
 30
0.0
 11
-50.36270479
 21
145.5
 31
0.0
1001
ACAD
1000
RTLwPs
1070
     158
  0
SOLID
  5
1645
100
AcDbEntity
  8
0
 62
       0
100
AcDbTrace
 10
-50.77937145
 20
283.5
 30
0.0
 11
-49.94603812
 21
283.5
 31
0.0
 12
-50.36270479
 22
286.0
 32
0.0
 13
-50.36270479
 23
286.0
 33
0.0
  0
SOLID
  5
1646
100
AcDbEntity
  8
0
 62
       0
100
AcDbTrace
 10
-50.77937145
 20
145.5
 30
0.0
 11
-49.94603812
 21
145.5
 31
0.0
 12
-50.36270479
 22
143.0
 32
0.0
 13
-50.36270479
 23
143.0
 33
0.0
  0
MTEXT
  5
1647
100
AcDbEntity
  8
0
 62
       0
100
AcDbMText
 10
-53.48770479
 20
214.5
 30
0.0
 40
5.0
 41
0.0
 71
       5
 72
       1
  1
143
 11
0.0
 21
1.0
 31
0.0
1001
ACAD
1000
MTEXTBEGIN
1070
      73
1070
       1
1070
      44
1040
1.0
1070
      74
1070
       0
1000
MTEXTEND
1000
MTEXTBEGIN
1070
      73
1070
       1
1070
      44
1040
1.0
1070
      74
1070
       0
1000
MTEXTEND
  0
POINT
  5
1648
100
AcDbEntity
  8
DEFPOINTS
 62
       0
100
AcDbPoint
 10
25.0
 20
286.0
 30
0.0
  0
POINT
  5
1649
100
AcDbEntity
  8
DEFPOINTS
 62
       0
100
AcDbPoint
 10
-10.0
 20
143.0
 30
0.0
  0
POINT
  5
164A
100
AcDbEntity
  8
DEFPOINTS
 62
       0
100
AcDbPoint
 10
-50.36270479
 20
143.0
 30
0.0
  0
ENDBLK
  5
6AF
100
AcDbEntity
  8
0
100
AcDbBlockEnd
  0
BLOCK
  5
7BC
100
AcDbEntity
  8
0
100
AcDbBlockBegin
  2
*D5
 70
      65
 10
0.0
 20
0.0
 30
0.0
  3
*D5
  1

  0
LINE
  5
134E
100
AcDbEntity
  8
0
 62
       0
100
AcDbLine
 10
19.0
 20
166.125
 30
0.0
 11
19.0
 21
178.26445725
 31
0.0
1001
ACAD
1000
RTLwPs
1070
     158
  0
LINE
  5
134F
100
AcDbEntity
  8
0
 62
       0
100
AcDbLine
 10
-0.0
 20
166.125
 30
0.0
 11
-0.0
 21
178.26445725
 31
0.0
1001
ACAD
1000
RTLwPs
1070
     158
  0
LINE
  5
1350
100
AcDbEntity
  8
0
 62
       0
100
AcDbLine
 10
16.5
 20
177.01445725
 30
0.0
 11
2.5
 21
177.01445725
 31
0.0
1001
ACAD
1000
RTLwPs
1070
     158
  0
SOLID
  5
1351
100
AcDbEntity
  8
0
 62
       0
100
AcDbTrace
 10
16.5
 20
177.43112392
 30
0.0
 11
16.5
 21
176.59779059
 31
0.0
 12
19.0
 22
177.01445725
 32
0.0
 13
19.0
 23
177.01445725
 33
0.0
  0
SOLID
  5
1352
100
AcDbEntity
  8
0
 62
       0
100
AcDbTrace
 10
2.5
 20
177.43112392
 30
0.0
 11
2.5
 21
176.59779059
 31
0.0
 12
-0.0
 22
177.01445725
 32
0.0
 13
-0.0
 23
177.01445725
 33
0.0
  0
MTEXT
  5
1353
100
AcDbEntity
  8
0
 62
       0
100
AcDbMText
 10
9.5
 20
180.13945725
 30
0.0
 40
5.0
 41
0.0
 71
       5
 72
       1
  1
19
1001
ACAD
1000
MTEXTBEGIN
1070
      73
1070
       1
1070
      44
1040
1.0
1070
      74
1070
       0
1000
MTEXTEND
1000
MTEXTBEGIN
1070
      73
1070
       1
1070
      44
1040
1.0
1070
      74
1070
       0
1000
MTEXTEND
  0
POINT
  5
1354
100
AcDbEntity
  8
DEFPOINTS
 62
       0
100
AcDbPoint
 10
19.0
 20
165.5
 30
0.0
  0
POINT
  5
1355
100
AcDbEntity
  8
DEFPOINTS
 62
       0
100
AcDbPoint
 10
-0.0
 20
165.5
 30
0.0
  0
POINT
  5
1356
100
AcDbEntity
  8
DEFPOINTS
 62
       0
100
AcDbPoint
 10
-0.0
 20
177.01445725
 30
0.0
  0
ENDBLK
  5
7BD
100
AcDbEntity
  8
0
100
AcDbBlockEnd
  0
BLOCK
  5
7DD
100
AcDbEntity
  8
0
100
AcDbBlockBegin
  2
*D6
 70
      65
 10
0.0
 20
0.0
 30
0.0
  3
*D6
  1

  0
LINE
  5
136B
100
AcDbEntity
  8
0
 62
       0
100
AcDbLine
 10
-0.0
 20
105.81192456
 30
0.0
 11
-0.0
 21
104.00286535
 31
0.0
1001
ACAD
1000
RTLwPs
1070
     158
  0
LINE
  5
136C
100
AcDbEntity
  8
0
 62
       0
100
AcDbLine
 10
63.0
 20
115.20432104
 30
0.0
 11
63.0
 21
104.00286535
 31
0.0
1001
ACAD
1000
RTLwPs
1070
     158
  0
LINE
  5
136D
100
AcDbEntity
  8
0
 62
       0
100
AcDbLine
 10
2.5
 20
105.25286535
 30
0.0
 11
60.5
 21
105.25286535
 31
0.0
1001
ACAD
1000
RTLwPs
1070
     158
  0
SOLID
  5
136E
100
AcDbEntity
  8
0
 62
       0
100
AcDbTrace
 10
2.5
 20
105.66953201
 30
0.0
 11
2.5
 21
104.83619868
 31
0.0
 12
-0.0
 22
105.25286535
 32
0.0
 13
-0.0
 23
105.25286535
 33
0.0
  0
SOLID
  5
136F
100
AcDbEntity
  8
0
 62
       0
100
AcDbTrace
 10
60.5
 20
105.66953201
 30
0.0
 11
60.5
 21
104.83619868
 31
0.0
 12
63.0
 22
105.25286535
 32
0.0
 13
63.0
 23
105.25286535
 33
0.0
  0
MTEXT
  5
1370
100
AcDbEntity
  8
0
 62
       0
100
AcDbMText
 10
31.5
 20
108.37786535
 30
0.0
 40
5.0
 41
0.0
 71
       5
 72
       1
  1
63
1001
ACAD
1000
MTEXTBEGIN
1070
      73
1070
       1
1070
      44
1040
1.0
1070
      74
1070
       0
1000
MTEXTEND
1000
MTEXTBEGIN
1070
      73
1070
       1
1070
      44
1040
1.0
1070
      74
1070
       0
1000
MTEXTEND
  0
POINT
  5
1371
100
AcDbEntity
  8
DEFPOINTS
 62
       0
100
AcDbPoint
 10
-0.0
 20
106.43692456
 30
0.0
  0
POINT
  5
1372
100
AcDbEntity
  8
DEFPOINTS
 62
       0
100
AcDbPoint
 10
63.0
 20
115.82932104
 30
0.0
  0
POINT
  5
1373
100
AcDbEntity
  8
DEFPOINTS
 62
       0
100
AcDbPoint
 10
63.0
 20
105.25286535
 30
0.0
  0
ENDBLK
  5
7DE
100
AcDbEntity
  8
0
100
AcDbBlockEnd
  0
BLOCK
  5
89E
100
AcDbEntity
  8
0
100
AcDbBlockBegin
  2
*D7
 70
      65
 10
0.0
 20
0.0
 30
0.0
  3
*D7
  1

  0
LINE
  5
A38
100
AcDbEntity
  8
0
 62
       0
100
AcDbLine
 10
400.0
 20
36.375
 30
0.0
 11
400.0
 21
-0.12580829
 31
0.0
1001
ACAD
1000
RTLwPs
1070
     158
  0
LINE
  5
A39
100
AcDbEntity
  8
0
 62
       0
100
AcDbLine
 10
381.0
 20
51.08017405
 30
0.0
 11
381.0
 21
-0.12580829
 31
0.0
1001
ACAD
1000
RTLwPs
1070
     158
  0
LINE
  5
A3A
100
AcDbEntity
  8
0
 62
       0
100
AcDbLine
 10
397.5
 20
1.12419171
 30
0.0
 11
383.5
 21
1.12419171
 31
0.0
1001
ACAD
1000
RTLwPs
1070
     158
  0
SOLID
  5
A3B
100
AcDbEntity
  8
0
 62
       0
100
AcDbTrace
 10
397.5
 20
1.54085837
 30
0.0
 11
397.5
 21
0.70752504
 31
0.0
 12
400.0
 22
1.12419171
 32
0.0
 13
400.0
 23
1.12419171
 33
0.0
  0
SOLID
  5
A3C
100
AcDbEntity
  8
0
 62
       0
100
AcDbTrace
 10
383.5
 20
1.54085837
 30
0.0
 11
383.5
 21
0.70752504
 31
0.0
 12
381.0
 22
1.12419171
 32
0.0
 13
381.0
 23
1.12419171
 33
0.0
  0
MTEXT
  5
A3D
100
AcDbEntity
  8
0
 62
       0
100
AcDbMText
 10
390.5
 20
4.24919171
 30
0.0
 40
5.0
 41
0.0
 71
       5
 72
       1
  1
19
1001
ACAD
1000
MTEXTBEGIN
1070
      73
1070
       1
1070
      44
1040
1.0
1070
      74
1070
       0
1000
MTEXTEND
1000
MTEXTBEGIN
1070
      73
1070
       1
1070
      44
1040
1.0
1070
      74
1070
       0
1000
MTEXTEND
  0
POINT
  5
A3E
100
AcDbEntity
  8
DEFPOINTS
 62
       0
100
AcDbPoint
 10
400.0
 20
37.0
 30
0.0
  0
POINT
  5
A3F
100
AcDbEntity
  8
DEFPOINTS
 62
       0
100
AcDbPoint
 10
381.0
 20
51.70517405
 30
0.0
  0
POINT
  5
A40
100
AcDbEntity
  8
DEFPOINTS
 62
       0
100
AcDbPoint
 10
381.0
 20
1.12419171
 30
0.0
  0
ENDBLK
  5
89F
100
AcDbEntity
  8
0
100
AcDbBlockEnd
  0
BLOCK
  5
8AB
100
AcDbEntity
  8
0
100
AcDbBlockBegin
  2
*D8
 70
      65
 10
0.0
 20
0.0
 30
0.0
  3
*D8
  1

  0
LINE
  5
A0B
100
AcDbEntity
  8
0
 62
       0
100
AcDbLine
 10
400.0
 20
36.375
 30
0.0
 11
400.0
 21
-15.44570957
 31
0.0
1001
ACAD
1000
RTLwPs
1070
     158
  0
LINE
  5
A0C
100
AcDbEntity
  8
0
 62
       0
100
AcDbLine
 10
360.0
 20
50.375
 30
0.0
 11
360.0
 21
-15.44570957
 31
0.0
1001
ACAD
1000
RTLwPs
1070
     158
  0
LINE
  5
A0D
100
AcDbEntity
  8
0
 62
       0
100
AcDbLine
 10
397.5
 20
-14.19570957
 30
0.0
 11
362.5
 21
-14.19570957
 31
0.0
1001
ACAD
1000
RTLwPs
1070
     158
  0
SOLID
  5
A0E
100
AcDbEntity
  8
0
 62
       0
100
AcDbTrace
 10
397.5
 20
-13.77904291
 30
0.0
 11
397.5
 21
-14.61237624
 31
0.0
 12
400.0
 22
-14.19570957
 32
0.0
 13
400.0
 23
-14.19570957
 33
0.0
  0
SOLID
  5
A0F
100
AcDbEntity
  8
0
 62
       0
100
AcDbTrace
 10
362.5
 20
-13.77904291
 30
0.0
 11
362.5
 21
-14.61237624
 31
0.0
 12
360.0
 22
-14.19570957
 32
0.0
 13
360.0
 23
-14.19570957
 33
0.0
  0
MTEXT
  5
A10
100
AcDbEntity
  8
0
 62
       0
100
AcDbMText
 10
380.0
 20
-11.07070957
 30
0.0
 40
5.0
 41
0.0
 71
       5
 72
       1
  1
40
1001
ACAD
1000
MTEXTBEGIN
1070
      73
1070
       1
1070
      44
1040
1.0
1070
      74
1070
       0
1000
MTEXTEND
1000
MTEXTBEGIN
1070
      73
1070
       1
1070
      44
1040
1.0
1070
      74
1070
       0
1000
MTEXTEND
  0
POINT
  5
A11
100
AcDbEntity
  8
DEFPOINTS
 62
       0
100
AcDbPoint
 10
400.0
 20
37.0
 30
0.0
  0
POINT
  5
A12
100
AcDbEntity
  8
DEFPOINTS
 62
       0
100
AcDbPoint
 10
360.0
 20
51.0
 30
0.0
  0
POINT
  5
A13
100
AcDbEntity
  8
DEFPOINTS
 62
       0
100
AcDbPoint
 10
360.0
 20
-14.19570957
 30
0.0
  0
ENDBLK
  5
8AC
100
AcDbEntity
  8
0
100
AcDbBlockEnd
  0
BLOCK
  5
8B8
100
AcDbEntity
  8
0
100
AcDbBlockBegin
  2
*D9
 70
      65
 10
0.0
 20
0.0
 30
0.0
  3
*D9
  1

  0
LINE
  5
12D9
100
AcDbEntity
  8
0
 62
       0
100
AcDbLine
 10
400.0
 20
78.375
 30
0.0
 11
400.0
 21
-27.73678343
 31
0.0
1001
ACAD
1000
RTLwPs
1070
     158
  0
LINE
  5
12DA
100
AcDbEntity
  8
0
 62
       0
100
AcDbLine
 10
322.5
 20
88.375
 30
0.0
 11
322.5
 21
-27.73678343
 31
0.0
1001
ACAD
1000
RTLwPs
1070
     158
  0
LINE
  5
12DB
100
AcDbEntity
  8
0
 62
       0
100
AcDbLine
 10
397.5
 20
-26.48678343
 30
0.0
 11
325.0
 21
-26.48678343
 31
0.0
1001
ACAD
1000
RTLwPs
1070
     158
  0
SOLID
  5
12DC
100
AcDbEntity
  8
0
 62
       0
100
AcDbTrace
 10
397.5
 20
-26.07011676
 30
0.0
 11
397.5
 21
-26.90345009
 31
0.0
 12
400.0
 22
-26.48678343
 32
0.0
 13
400.0
 23
-26.48678343
 33
0.0
  0
SOLID
  5
12DD
100
AcDbEntity
  8
0
 62
       0
100
AcDbTrace
 10
325.0
 20
-26.07011676
 30
0.0
 11
325.0
 21
-26.90345009
 31
0.0
 12
322.5
 22
-26.48678343
 32
0.0
 13
322.5
 23
-26.48678343
 33
0.0
  0
MTEXT
  5
12DE
100
AcDbEntity
  8
0
 62
       0
100
AcDbMText
 10
361.25
 20
-22.94511676
 30
0.0
 40
5.0
 41
0.0
 71
       5
 72
       1
  1
77,5
1001
ACAD
1000
MTEXTBEGIN
1070
      73
1070
       1
1070
      44
1040
1.0
1070
      74
1070
       0
1000
MTEXTEND
1000
MTEXTBEGIN
1070
      73
1070
       1
1070
      44
1040
1.0
1070
      74
1070
       0
1000
MTEXTEND
  0
POINT
  5
12DF
100
AcDbEntity
  8
DEFPOINTS
 62
       0
100
AcDbPoint
 10
400.0
 20
79.0
 30
0.0
  0
POINT
  5
12E0
100
AcDbEntity
  8
DEFPOINTS
 62
       0
100
AcDbPoint
 10
322.5
 20
89.0
 30
0.0
  0
POINT
  5
12E1
100
AcDbEntity
  8
DEFPOINTS
 62
       0
100
AcDbPoint
 10
322.5
 20
-26.48678343
 30
0.0
  0
ENDBLK
  5
8B9
100
AcDbEntity
  8
0
100
AcDbBlockEnd
  0
BLOCK
  5
98E
100
AcDbEntity
  8
0
100
AcDbBlockBegin
  2
*D10
 70
      65
 10
0.0
 20
0.0
 30
0.0
  3
*D10
  1

  0
LINE
  5
1374
100
AcDbEntity
  8
0
 62
       0
100
AcDbLine
 10
343.0
 20
142.375
 30
0.0
 11
343.0
 21
104.00286535
 31
0.0
1001
ACAD
1000
RTLwPs
1070
     158
  0
LINE
  5
1375
100
AcDbEntity
  8
0
 62
       0
100
AcDbLine
 10
400.0
 20
142.375
 30
0.0
 11
400.0
 21
104.00286535
 31
0.0
1001
ACAD
1000
RTLwPs
1070
     158
  0
LINE
  5
1376
100
AcDbEntity
  8
0
 62
       0
100
AcDbLine
 10
345.5
 20
105.25286535
 30
0.0
 11
397.5
 21
105.25286535
 31
0.0
1001
ACAD
1000
RTLwPs
1070
     158
  0
SOLID
  5
1377
100
AcDbEntity
  8
0
 62
       0
100
AcDbTrace
 10
345.5
 20
105.66953201
 30
0.0
 11
345.5
 21
104.83619868
 31
0.0
 12
343.0
 22
105.25286535
 32
0.0
 13
343.0
 23
105.25286535
 33
0.0
  0
SOLID
  5
1378
100
AcDbEntity
  8
0
 62
       0
100
AcDbTrace
 10
397.5
 20
105.66953201
 30
0.0
 11
397.5
 21
104.83619868
 31
0.0
 12
400.0
 22
105.25286535
 32
0.0
 13
400.0
 23
105.25286535
 33
0.0
  0
MTEXT
  5
1379
100
AcDbEntity
  8
0
 62
       0
100
AcDbMText
 10
371.5
 20
108.37786535
 30
0.0
 40
5.0
 41
0.0
 71
       5
 72
       1
  1
57
1001
ACAD
1000
MTEXTBEGIN
1070
      73
1070
       1
1070
      44
1040
1.0
1070
      74
1070
       0
1000
MTEXTEND
1000
MTEXTBEGIN
1070
      73
1070
       1
1070
      44
1040
1.0
1070
      74
1070
       0
1000
MTEXTEND
  0
POINT
  5
137A
100
AcDbEntity
  8
DEFPOINTS
 62
       0
100
AcDbPoint
 10
343.0
 20
143.0
 30
0.0
  0
POINT
  5
137B
100
AcDbEntity
  8
DEFPOINTS
 62
       0
100
AcDbPoint
 10
400.0
 20
143.0
 30
0.0
  0
POINT
  5
137C
100
AcDbEntity
  8
DEFPOINTS
 62
       0
100
AcDbPoint
 10
400.0
 20
105.25286535
 30
0.0
  0
ENDBLK
  5
98F
100
AcDbEntity
  8
0
100
AcDbBlockEnd
  0
BLOCK
  5
A4D
100
AcDbEntity
  8
0
100
AcDbBlockBegin
  2
*D11
 70
      65
 10
0.0
 20
0.0
 30
0.0
  3
*D11
  1

  0
LINE
  5
1447
100
AcDbEntity
  8
0
 62
       0
100
AcDbLine
 10
400.0
 20
24.80747305
 30
0.0
 11
400.0
 21
-40.17986355
 31
0.0
1001
ACAD
1000
RTLwPs
1070
     158
  0
LINE
  5
1448
100
AcDbEntity
  8
0
 62
       0
100
AcDbLine
 10
181.92037442
 20
-0.7106734
 30
0.0
 11
181.92037442
 21
-40.17986355
 31
0.0
1001
ACAD
1000
RTLwPs
1070
     158
  0
LINE
  5
1449
100
AcDbEntity
  8
0
 62
       0
100
AcDbLine
 10
397.5
 20
-38.92986355
 30
0.0
 11
184.42037442
 21
-38.92986355
 31
0.0
1001
ACAD
1000
RTLwPs
1070
     158
  0
SOLID
  5
144A
100
AcDbEntity
  8
0
 62
       0
100
AcDbTrace
 10
397.5
 20
-38.51319689
 30
0.0
 11
397.5
 21
-39.34653022
 31
0.0
 12
400.0
 22
-38.92986355
 32
0.0
 13
400.0
 23
-38.92986355
 33
0.0
  0
SOLID
  5
144B
100
AcDbEntity
  8
0
 62
       0
100
AcDbTrace
 10
184.42037442
 20
-38.51319689
 30
0.0
 11
184.42037442
 21
-39.34653022
 31
0.0
 12
181.92037442
 22
-38.92986355
 32
0.0
 13
181.92037442
 23
-38.92986355
 33
0.0
  0
MTEXT
  5
144C
100
AcDbEntity
  8
0
 62
       0
100
AcDbMText
 10
290.96018721
 20
-35.80486355
 30
0.0
 40
5.0
 41
0.0
 71
       5
 72
       1
  1
218
1001
ACAD
1000
MTEXTBEGIN
1070
      73
1070
       1
1070
      44
1040
1.0
1070
      74
1070
       0
1000
MTEXTEND
1000
MTEXTBEGIN
1070
      73
1070
       1
1070
      44
1040
1.0
1070
      74
1070
       0
1000
MTEXTEND
  0
POINT
  5
144D
100
AcDbEntity
  8
DEFPOINTS
 62
       0
100
AcDbPoint
 10
400.0
 20
25.43247305
 30
0.0
  0
POINT
  5
144E
100
AcDbEntity
  8
DEFPOINTS
 62
       0
100
AcDbPoint
 10
181.92037442
 20
-0.0856734
 30
0.0
  0
POINT
  5
144F
100
AcDbEntity
  8
DEFPOINTS
 62
       0
100
AcDbPoint
 10
181.92037442
 20
-38.92986355
 30
0.0
  0
ENDBLK
  5
A4E
100
AcDbEntity
  8
0
100
AcDbBlockEnd
  0
BLOCK
  5
A5C
100
AcDbEntity
  8
0
100
AcDbBlockBegin
  2
*D12
 70
      65
 10
0.0
 20
0.0
 30
0.0
  3
*D12
  1

  0
LINE
  5
18EA
100
AcDbEntity
  8
0
 62
       0
100
AcDbLine
 10
-0.0
 20
12.375
 30
0.0
 11
-0.0
 21
-13.73954014
 31
0.0
1001
ACAD
1000
RTLwPs
1070
     158
  0
LINE
  5
18EB
100
AcDbEntity
  8
0
 62
       0
100
AcDbLine
 10
49.5
 20
39.375
 30
0.0
 11
49.5
 21
-13.73954014
 31
0.0
1001
ACAD
1000
RTLwPs
1070
     158
  0
LINE
  5
18EC
100
AcDbEntity
  8
0
 62
       0
100
AcDbLine
 10
2.5
 20
-12.48954014
 30
0.0
 11
47.0
 21
-12.48954014
 31
0.0
1001
ACAD
1000
RTLwPs
1070
     158
  0
SOLID
  5
18ED
100
AcDbEntity
  8
0
 62
       0
100
AcDbTrace
 10
2.5
 20
-12.07287348
 30
0.0
 11
2.5
 21
-12.90620681
 31
0.0
 12
-0.0
 22
-12.48954014
 32
0.0
 13
-0.0
 23
-12.48954014
 33
0.0
  0
SOLID
  5
18EE
100
AcDbEntity
  8
0
 62
       0
100
AcDbTrace
 10
47.0
 20
-12.07287348
 30
0.0
 11
47.0
 21
-12.90620681
 31
0.0
 12
49.5
 22
-12.48954014
 32
0.0
 13
49.5
 23
-12.48954014
 33
0.0
  0
MTEXT
  5
18EF
100
AcDbEntity
  8
0
 62
       0
100
AcDbMText
 10
24.75
 20
-8.94787348
 30
0.0
 40
5.0
 41
0.0
 71
       5
 72
       1
  1
49,5
1001
ACAD
1000
MTEXTBEGIN
1070
      73
1070
       1
1070
      44
1040
1.0
1070
      74
1070
       0
1000
MTEXTEND
1000
MTEXTBEGIN
1070
      73
1070
       1
1070
      44
1040
1.0
1070
      74
1070
       0
1000
MTEXTEND
  0
POINT
  5
18F0
100
AcDbEntity
  8
DEFPOINTS
 62
       0
100
AcDbPoint
 10
0.0
 20
13.0
 30
0.0
  0
POINT
  5
18F1
100
AcDbEntity
  8
DEFPOINTS
 62
       0
100
AcDbPoint
 10
49.5
 20
40.0
 30
0.0
  0
POINT
  5
18F2
100
AcDbEntity
  8
DEFPOINTS
 62
       0
100
AcDbPoint
 10
49.5
 20
-12.48954014
 30
0.0
  0
ENDBLK
  5
A5D
100
AcDbEntity
  8
0
100
AcDbBlockEnd
  0
BLOCK
  5
A69
100
AcDbEntity
  8
0
100
AcDbBlockBegin
  2
*D13
 70
      65
 10
0.0
 20
0.0
 30
0.0
  3
*D13
  1

  0
LINE
  5
18F3
100
AcDbEntity
  8
0
 62
       0
100
AcDbLine
 10
-0.0
 20
12.375
 30
0.0
 11
-0.0
 21
-25.77619727
 31
0.0
1001
ACAD
1000
RTLwPs
1070
     158
  0
LINE
  5
18F4
100
AcDbEntity
  8
0
 62
       0
100
AcDbLine
 10
57.0
 20
18.375
 30
0.0
 11
57.0
 21
-25.77619727
 31
0.0
1001
ACAD
1000
RTLwPs
1070
     158
  0
LINE
  5
18F5
100
AcDbEntity
  8
0
 62
       0
100
AcDbLine
 10
2.5
 20
-24.52619727
 30
0.0
 11
54.5
 21
-24.52619727
 31
0.0
1001
ACAD
1000
RTLwPs
1070
     158
  0
SOLID
  5
18F6
100
AcDbEntity
  8
0
 62
       0
100
AcDbTrace
 10
2.5
 20
-24.1095306
 30
0.0
 11
2.5
 21
-24.94286394
 31
0.0
 12
-0.0
 22
-24.52619727
 32
0.0
 13
-0.0
 23
-24.52619727
 33
0.0
  0
SOLID
  5
18F7
100
AcDbEntity
  8
0
 62
       0
100
AcDbTrace
 10
54.5
 20
-24.1095306
 30
0.0
 11
54.5
 21
-24.94286394
 31
0.0
 12
57.0
 22
-24.52619727
 32
0.0
 13
57.0
 23
-24.52619727
 33
0.0
  0
MTEXT
  5
18F8
100
AcDbEntity
  8
0
 62
       0
100
AcDbMText
 10
28.5
 20
-21.40119727
 30
0.0
 40
5.0
 41
0.0
 71
       5
 72
       1
  1
57
1001
ACAD
1000
MTEXTBEGIN
1070
      73
1070
       1
1070
      44
1040
1.0
1070
      74
1070
       0
1000
MTEXTEND
1000
MTEXTBEGIN
1070
      73
1070
       1
1070
      44
1040
1.0
1070
      74
1070
       0
1000
MTEXTEND
  0
POINT
  5
18F9
100
AcDbEntity
  8
DEFPOINTS
 62
       0
100
AcDbPoint
 10
0.0
 20
13.0
 30
0.0
  0
POINT
  5
18FA
100
AcDbEntity
  8
DEFPOINTS
 62
       0
100
AcDbPoint
 10
57.0
 20
19.0
 30
0.0
  0
POINT
  5
18FB
100
AcDbEntity
  8
DEFPOINTS
 62
       0
100
AcDbPoint
 10
57.0
 20
-24.52619727
 30
0.0
  0
ENDBLK
  5
A6A
100
AcDbEntity
  8
0
100
AcDbBlockEnd
  0
BLOCK
  5
A90
100
AcDbEntity
  8
0
100
AcDbBlockBegin
  2
*D14
 70
      65
 10
0.0
 20
0.0
 30
0.0
  3
*D14
  1

  0
LINE
  5
18A2
100
AcDbEntity
  8
0
 62
       0
100
AcDbLine
 10
-0.625
 20
-0.00608619
 30
0.0
 11
-12.03827901
 21
-0.00608619
 31
0.0
1001
ACAD
1000
RTLwPs
1070
     158
  0
LINE
  5
18A3
100
AcDbEntity
  8
0
 62
       0
100
AcDbLine
 10
56.375
 20
19.0
 30
0.0
 11
-12.03827901
 21
19.0
 31
0.0
1001
ACAD
1000
RTLwPs
1070
     158
  0
LINE
  5
18A4
100
AcDbEntity
  8
0
 62
       0
100
AcDbLine
 10
-10.78827901
 20
2.49391381
 30
0.0
 11
-10.78827901
 21
16.5
 31
0.0
1001
ACAD
1000
RTLwPs
1070
     158
  0
SOLID
  5
18A5
100
AcDbEntity
  8
0
 62
       0
100
AcDbTrace
 10
-11.20494568
 20
2.49391381
 30
0.0
 11
-10.37161235
 21
2.49391381
 31
0.0
 12
-10.78827901
 22
-0.00608619
 32
0.0
 13
-10.78827901
 23
-0.00608619
 33
0.0
  0
SOLID
  5
18A6
100
AcDbEntity
  8
0
 62
       0
100
AcDbTrace
 10
-11.20494568
 20
16.5
 30
0.0
 11
-10.37161235
 21
16.5
 31
0.0
 12
-10.78827901
 22
19.0
 32
0.0
 13
-10.78827901
 23
19.0
 33
0.0
  0
MTEXT
  5
18A7
100
AcDbEntity
  8
0
 62
       0
100
AcDbMText
 10
-13.91327901
 20
9.49695691
 30
0.0
 40
5.0
 41
0.0
 71
       5
 72
       1
  1
19
 11
0.0
 21
1.0
 31
0.0
1001
ACAD
1000
MTEXTBEGIN
1070
      73
1070
       1
1070
      44
1040
1.0
1070
      74
1070
       0
1000
MTEXTEND
1000
MTEXTBEGIN
1070
      73
1070
       1
1070
      44
1040
1.0
1070
      74
1070
       0
1000
MTEXTEND
  0
POINT
  5
18A8
100
AcDbEntity
  8
DEFPOINTS
 62
       0
100
AcDbPoint
 10
-0.0
 20
-0.00608619
 30
0.0
  0
POINT
  5
18A9
100
AcDbEntity
  8
DEFPOINTS
 62
       0
100
AcDbPoint
 10
57.0
 20
19.0
 30
0.0
  0
POINT
  5
18AA
100
AcDbEntity
  8
DEFPOINTS
 62
       0
100
AcDbPoint
 10
-10.78827901
 20
19.0
 30
0.0
  0
ENDBLK
  5
A91
100
AcDbEntity
  8
0
100
AcDbBlockEnd
  0
BLOCK
  5
AAA
100
AcDbEntity
  8
0
100
AcDbBlockBegin
  2
*D15
 70
      65
 10
0.0
 20
0.0
 30
0.0
  3
*D15
  1

  0
LINE
  5
18B4
100
AcDbEntity
  8
0
 62
       0
100
AcDbLine
 10
-0.625
 20
-0.00608619
 30
0.0
 11
-36.12609043
 21
-0.00608619
 31
0.0
1001
ACAD
1000
RTLwPs
1070
     158
  0
LINE
  5
18B5
100
AcDbEntity
  8
0
 62
       0
100
AcDbLine
 10
48.875
 20
40.0
 30
0.0
 11
-36.12609043
 21
40.0
 31
0.0
1001
ACAD
1000
RTLwPs
1070
     158
  0
LINE
  5
18B6
100
AcDbEntity
  8
0
 62
       0
100
AcDbLine
 10
-34.87609043
 20
2.49391381
 30
0.0
 11
-34.87609043
 21
37.5
 31
0.0
1001
ACAD
1000
RTLwPs
1070
     158
  0
SOLID
  5
18B7
100
AcDbEntity
  8
0
 62
       0
100
AcDbTrace
 10
-35.29275709
 20
2.49391381
 30
0.0
 11
-34.45942376
 21
2.49391381
 31
0.0
 12
-34.87609043
 22
-0.00608619
 32
0.0
 13
-34.87609043
 23
-0.00608619
 33
0.0
  0
SOLID
  5
18B8
100
AcDbEntity
  8
0
 62
       0
100
AcDbTrace
 10
-35.29275709
 20
37.5
 30
0.0
 11
-34.45942376
 21
37.5
 31
0.0
 12
-34.87609043
 22
40.0
 32
0.0
 13
-34.87609043
 23
40.0
 33
0.0
  0
MTEXT
  5
18B9
100
AcDbEntity
  8
0
 62
       0
100
AcDbMText
 10
-38.00109043
 20
19.99695691
 30
0.0
 40
5.0
 41
0.0
 71
       5
 72
       1
  1
40
 11
0.0
 21
1.0
 31
0.0
1001
ACAD
1000
MTEXTBEGIN
1070
      73
1070
       1
1070
      44
1040
1.0
1070
      74
1070
       0
1000
MTEXTEND
1000
MTEXTBEGIN
1070
      73
1070
       1
1070
      44
1040
1.0
1070
      74
1070
       0
1000
MTEXTEND
  0
POINT
  5
18BA
100
AcDbEntity
  8
DEFPOINTS
 62
       0
100
AcDbPoint
 10
-0.0
 20
-0.00608619
 30
0.0
  0
POINT
  5
18BB
100
AcDbEntity
  8
DEFPOINTS
 62
       0
100
AcDbPoint
 10
49.5
 20
40.0
 30
0.0
  0
POINT
  5
18BC
100
AcDbEntity
  8
DEFPOINTS
 62
       0
100
AcDbPoint
 10
-34.87609043
 20
40.0
 30
0.0
  0
ENDBLK
  5
AAB
100
AcDbEntity
  8
0
100
AcDbBlockEnd
  0
BLOCK
  5
AC2
100
AcDbEntity
  8
0
100
AcDbBlockBegin
  2
*D16
 70
      65
 10
0.0
 20
0.0
 30
0.0
  3
*D16
  1

  0
LINE
  5
1450
100
AcDbEntity
  8
0
 62
       0
100
AcDbLine
 10
-21.78874377
 20
297.33724063
 30
0.0
 11
0.29935363
 21
281.88502008
 31
0.0
1001
ACAD
1000
RTLwPs
1070
     158
  0
MTEXT
  5
1451
100
AcDbEntity
  8
0
 62
       0
100
AcDbMText
 10
-14.70547309
 20
296.19576312
 30
0.0
 40
5.0
 41
0.0
 71
       5
 72
       1
  1
R13
 11
0.81939654
 21
-0.5732271
 31
0.0
1001
ACAD
1000
MTEXTBEGIN
1070
      73
1070
       1
1070
      44
1040
1.0
1070
      74
1070
       0
1000
MTEXTEND
1000
MTEXTBEGIN
1070
      73
1070
       1
1070
      44
1040
1.0
1070
      74
1070
       0
1000
MTEXTEND
  0
LINE
  5
1452
100
AcDbEntity
  8
0
 62
       0
100
AcDbLine
 10
13.0
 20
273.0
 30
0.0
 11
2.34784498
 21
280.45195232
 31
0.0
1001
ACAD
1000
RTLwPs
1070
     158
  0
SOLID
  5
1453
100
AcDbEntity
  8
0
 62
       0
100
AcDbTrace
 10
0.53819826
 20
282.2264353
 30
0.0
 11
0.060509
 21
281.54360485
 31
0.0
 12
2.34784498
 22
280.45195232
 32
0.0
 13
2.34784498
 23
280.45195232
 33
0.0
  0
POINT
  5
1454
100
AcDbEntity
  8
DEFPOINTS
 62
       0
100
AcDbPoint
 10
2.34784498
 20
280.45195232
 30
0.0
  0
POINT
  5
1455
100
AcDbEntity
  8
DEFPOINTS
 62
       0
100
AcDbPoint
 10
13.0
 20
273.0
 30
0.0
  0
ENDBLK
  5
AC3
100
AcDbEntity
  8
0
100
AcDbBlockEnd
  0
BLOCK
  5
C18
100
AcDbEntity
  8
0
100
AcDbBlockBegin
  2
*D17
 70
      65
 10
0.0
 20
0.0
 30
0.0
  3
*D17
  1

  0
LINE
  5
C0F
100
AcDbEntity
  8
0
 62
       0
100
AcDbLine
 10
359.55805826
 20
235.44194174
 30
0.0
 11
346.29806692
 21
248.70193308
 31
0.0
1001
ACAD
1000
RTLwPs
1070
     158
  0
LINE
  5
C10
100
AcDbEntity
  8
0
 62
       0
100
AcDbLine
 10
322.05805826
 20
197.94194174
 30
0.0
 11
308.79806692
 21
211.20193308
 31
0.0
1001
ACAD
1000
RTLwPs
1070
     158
  0
LINE
  5
C11
100
AcDbEntity
  8
0
 62
       0
100
AcDbLine
 10
345.41418345
 20
246.05028265
 30
0.0
 11
311.44971735
 21
212.08581655
 31
0.0
1001
ACAD
1000
RTLwPs
1070
     158
  0
SOLID
  5
C12
100
AcDbEntity
  8
0
 62
       0
100
AcDbTrace
 10
345.11955562
 20
246.34491047
 30
0.0
 11
345.70881127
 21
245.75565482
 31
0.0
 12
347.1819504
 22
247.8180496
 32
0.0
 13
347.1819504
 23
247.8180496
 33
0.0
  0
SOLID
  5
C13
100
AcDbEntity
  8
0
 62
       0
100
AcDbTrace
 10
311.15508953
 20
212.38044438
 30
0.0
 11
311.74434518
 21
211.79118873
 31
0.0
 12
309.6819504
 22
210.3180496
 32
0.0
 13
309.6819504
 23
210.3180496
 33
0.0
  0
MTEXT
  5
C14
100
AcDbEntity
  8
0
 62
       0
100
AcDbMText
 10
326.22224171
 20
231.27775829
 30
0.0
 40
5.0
 41
0.0
 71
       5
 72
       1
  1
53
 11
0.70710678
 21
0.70710678
 31
0.0
1001
ACAD
1000
MTEXTBEGIN
1070
      73
1070
       1
1070
      44
1040
1.0
1070
      74
1070
       0
1000
MTEXTEND
1000
MTEXTBEGIN
1070
      73
1070
       1
1070
      44
1040
1.0
1070
      74
1070
       0
1000
MTEXTEND
  0
POINT
  5
C15
100
AcDbEntity
  8
DEFPOINTS
 62
       0
100
AcDbPoint
 10
360.0
 20
235.0
 30
0.0
  0
POINT
  5
C16
100
AcDbEntity
  8
DEFPOINTS
 62
       0
100
AcDbPoint
 10
322.5
 20
197.5
 30
0.0
  0
POINT
  5
C17
100
AcDbEntity
  8
DEFPOINTS
 62
       0
100
AcDbPoint
 10
309.6819504
 20
210.3180496
 30
0.0
  0
ENDBLK
  5
C19
100
AcDbEntity
  8
0
100
AcDbBlockEnd
  0
BLOCK
  5
C27
100
AcDbEntity
  8
0
100
AcDbBlockBegin
  2
*D18
 70
      65
 10
0.0
 20
0.0
 30
0.0
  3
*D18
  1

  0
LINE
  5
C1C
100
AcDbEntity
  8
0
 62
       0
100
AcDbLine
 10
319.93673792
 20
199.17937861
 30
0.0
 11
309.74462595
 21
188.98726664
 31
0.0
1001
ACAD
1000
RTLwPs
1070
     158
  0
LINE
  5
C1D
100
AcDbEntity
  8
0
 62
       0
100
AcDbLine
 10
324.17937861
 20
194.93673792
 30
0.0
 11
313.98726664
 21
184.74462595
 31
0.0
1001
ACAD
1000
RTLwPs
1070
     158
  0
LINE
  5
C1E
100
AcDbEntity
  8
0
 62
       0
100
AcDbLine
 10
308.86074247
 20
191.63891706
 30
0.0
 11
307.09297552
 21
193.40668402
 31
0.0
1001
ACAD
1000
RTLwPs
1070
     158
  0
LINE
  5
C1F
100
AcDbEntity
  8
0
 62
       0
100
AcDbLine
 10
316.63891706
 20
183.86074247
 30
0.0
 11
318.40668402
 21
182.09297552
 31
0.0
1001
ACAD
1000
RTLwPs
1070
     158
  0
LINE
  5
C20
100
AcDbEntity
  8
0
 62
       0
100
AcDbLine
 10
310.62850942
 20
189.87115011
 30
0.0
 11
314.87115011
 21
185.62850942
 31
0.0
1001
ACAD
1000
RTLwPs
1070
     158
  0
SOLID
  5
C21
100
AcDbEntity
  8
0
 62
       0
100
AcDbTrace
 10
309.1553703
 20
191.93354489
 30
0.0
 11
308.56611465
 21
191.34428924
 31
0.0
 12
310.62850942
 22
189.87115011
 32
0.0
 13
310.62850942
 23
189.87115011
 33
0.0
  0
SOLID
  5
C22
100
AcDbEntity
  8
0
 62
       0
100
AcDbTrace
 10
316.93354489
 20
184.1553703
 30
0.0
 11
316.34428924
 21
183.56611465
 31
0.0
 12
314.87115011
 22
185.62850942
 32
0.0
 13
314.87115011
 23
185.62850942
 33
0.0
  0
MTEXT
  5
C23
100
AcDbEntity
  8
0
 62
       0
100
AcDbMText
 10
314.95953846
 20
189.95953846
 30
0.0
 40
5.0
 41
0.0
 71
       5
 72
       1
  1
6
 11
0.70710678
 21
-0.70710678
 31
0.0
1001
ACAD
1000
MTEXTBEGIN
1070
      73
1070
       1
1070
      44
1040
1.0
1070
      74
1070
       0
1000
MTEXTEND
1000
MTEXTBEGIN
1070
      73
1070
       1
1070
      44
1040
1.0
1070
      74
1070
       0
1000
MTEXTEND
  0
POINT
  5
C24
100
AcDbEntity
  8
DEFPOINTS
 62
       0
100
AcDbPoint
 10
320.37867966
 20
199.62132034
 30
0.0
  0
POINT
  5
C25
100
AcDbEntity
  8
DEFPOINTS
 62
       0
100
AcDbPoint
 10
324.62132034
 20
195.37867966
 30
0.0
  0
POINT
  5
C26
100
AcDbEntity
  8
DEFPOINTS
 62
       0
100
AcDbPoint
 10
314.87115011
 20
185.62850942
 30
0.0
  0
ENDBLK
  5
C28
100
AcDbEntity
  8
0
100
AcDbBlockEnd
  0
BLOCK
  5
C70
100
AcDbEntity
  8
0
100
AcDbBlockBegin
  2
*D19
 70
      65
 10
0.0
 20
0.0
 30
0.0
  3
*D19
  1

  0
LINE
  5
C67
100
AcDbEntity
  8
0
 62
       0
100
AcDbLine
 10
99.87475663
 20
251.3988833
 30
0.0
 11
124.42250315
 21
242.63183097
 31
0.0
1001
ACAD
1000
RTLwPs
1070
     158
  0
LINE
  5
C68
100
AcDbEntity
  8
0
 62
       0
100
AcDbLine
 10
92.37475663
 20
230.3988833
 30
0.0
 11
116.92250315
 21
221.63183097
 31
0.0
1001
ACAD
1000
RTLwPs
1070
     158
  0
LINE
  5
C69
100
AcDbEntity
  8
0
 62
       0
100
AcDbLine
 10
122.40448477
 20
240.69789669
 30
0.0
 11
116.58616675
 21
224.40660625
 31
0.0
1001
ACAD
1000
RTLwPs
1070
     158
  0
SOLID
  5
C6A
100
AcDbEntity
  8
0
 62
       0
100
AcDbTrace
 10
122.01209231
 20
240.83803686
 30
0.0
 11
122.79687723
 21
240.55775652
 31
0.0
 12
123.24532576
 22
243.05225147
 32
0.0
 13
123.24532576
 23
243.05225147
 33
0.0
  0
SOLID
  5
C6B
100
AcDbEntity
  8
0
 62
       0
100
AcDbTrace
 10
116.19377429
 20
224.54674641
 30
0.0
 11
116.97855922
 21
224.26646608
 31
0.0
 12
115.74532576
 22
222.05225147
 32
0.0
 13
115.74532576
 23
222.05225147
 33
0.0
  0
MTEXT
  5
C6C
100
AcDbEntity
  8
0
 62
       0
100
AcDbMText
 10
116.15998983
 20
233.74344288
 30
0.0
 40
5.0
 41
0.0
 71
       5
 72
       1
  1
22,3
 11
0.3363364
 21
0.94174191
 31
0.0
1001
ACAD
1000
MTEXTBEGIN
1070
      73
1070
       1
1070
      44
1040
1.0
1070
      74
1070
       0
1000
MTEXTEND
1000
MTEXTBEGIN
1070
      73
1070
       1
1070
      44
1040
1.0
1070
      74
1070
       0
1000
MTEXTEND
  0
POINT
  5
C6D
100
AcDbEntity
  8
DEFPOINTS
 62
       0
100
AcDbPoint
 10
99.28616794
 20
251.60909355
 30
0.0
  0
POINT
  5
C6E
100
AcDbEntity
  8
DEFPOINTS
 62
       0
100
AcDbPoint
 10
91.78616794
 20
230.60909355
 30
0.0
  0
POINT
  5
C6F
100
AcDbEntity
  8
DEFPOINTS
 62
       0
100
AcDbPoint
 10
115.74532576
 20
222.05225147
 30
0.0
  0
ENDBLK
  5
C71
100
AcDbEntity
  8
0
100
AcDbBlockEnd
  0
BLOCK
  5
C83
100
AcDbEntity
  8
0
100
AcDbBlockBegin
  2
*D20
 70
      65
 10
0.0
 20
0.0
 30
0.0
  3
*D20
  1

  0
LINE
  5
1AA6
100
AcDbEntity
  8
0
 62
       0
100
AcDbLine
 10
47.88663168
 20
243.39468473
 30
0.0
 11
28.38638986
 21
250.49219231
 31
0.0
  0
LINE
  5
1AA7
100
AcDbEntity
  8
0
 62
       0
100
AcDbLine
 10
45.73795573
 20
230.60909355
 30
0.0
 11
24.88046309
 21
230.60909355
 31
0.0
  0
ARC
  5
1AA8
100
AcDbEntity
  8
0
 62
       0
100
AcDbCircle
 10
83.01475473
 20
230.60909355
 30
0.0
 40
56.88429165
100
AcDbArc
 50
162.51828712
 51
177.48171288
  0
SOLID
  5
1AA9
100
AcDbEntity
  8
0
 62
       0
100
AcDbTrace
 10
28.36320918
 20
247.83108374
 30
0.0
 11
29.15236036
 21
247.56334345
 31
0.0
 12
29.56100563
 22
250.06466713
 32
0.0
 13
29.56100563
 23
250.06466713
 33
0.0
  0
SOLID
  5
1AAA
100
AcDbEntity
  8
0
 62
       0
100
AcDbTrace
 10
26.60196522
 20
233.09933387
 30
0.0
 11
25.76883311
 21
233.1176459
 31
0.0
 12
26.13046309
 22
230.60909355
 32
0.0
 13
26.13046309
 23
230.60909355
 33
0.0
  0
MTEXT
  5
1AAB
100
AcDbEntity
  8
0
 62
       0
100
AcDbMText
 10
23.91713907
 20
241.02959769
 30
0.0
 40
5.0
 41
0.0
 71
       5
 72
       1
  1
20°
 11
0.17364818
 21
0.98480775
 31
0.0
  0
POINT
  5
1AAC
100
AcDbEntity
  8
DEFPOINTS
 62
       0
100
AcDbPoint
 10
27.66378653
 20
243.727514
 30
0.0
  0
POINT
  5
1AAD
100
AcDbEntity
  8
DEFPOINTS
 62
       0
100
AcDbPoint
 10
48.47393957
 20
243.18092214
 30
0.0
  0
POINT
  5
1AAE
100
AcDbEntity
  8
DEFPOINTS
 62
       0
100
AcDbPoint
 10
91.78616794
 20
230.60909355
 30
0.0
  0
POINT
  5
1AAF
100
AcDbEntity
  8
DEFPOINTS
 62
       0
100
AcDbPoint
 10
46.36295573
 20
230.60909355
 30
0.0
  0
POINT
  5
1AB0
100
AcDbEntity
  8
DEFPOINTS
 62
       0
100
AcDbPoint
 10
90.76010751
 20
227.79001569
 30
0.0
  0
ENDBLK
  5
C84
100
AcDbEntity
  8
0
100
AcDbBlockEnd
  0
BLOCK
  5
C91
100
AcDbEntity
  8
0
100
AcDbBlockBegin
  2
*D21
 70
      65
 10
0.0
 20
0.0
 30
0.0
  3
*D21
  1

  0
LINE
  5
C88
100
AcDbEntity
  8
0
 62
       0
100
AcDbLine
 10
56.78623741
 20
266.41269211
 30
0.0
 11
52.36472644
 21
254.26469056
 31
0.0
1001
ACAD
1000
RTLwPs
1070
     158
  0
LINE
  5
C89
100
AcDbEntity
  8
0
 62
       0
100
AcDbLine
 10
99.07240535
 20
251.02178566
 30
0.0
 11
94.65089438
 21
238.87378411
 31
0.0
1001
ACAD
1000
RTLwPs
1070
     158
  0
LINE
  5
C8A
100
AcDbEntity
  8
0
 62
       0
100
AcDbLine
 10
55.14148317
 20
254.58425598
 30
0.0
 11
92.729188
 21
240.90345025
 31
0.0
1001
ACAD
1000
RTLwPs
1070
     158
  0
SOLID
  5
C8B
100
AcDbEntity
  8
0
 62
       0
100
AcDbTrace
 10
55.28399157
 20
254.97579457
 30
0.0
 11
54.99897478
 21
254.19271739
 31
0.0
 12
52.79225162
 22
255.43930634
 32
0.0
 13
52.79225162
 23
255.43930634
 33
0.0
  0
SOLID
  5
C8C
100
AcDbEntity
  8
0
 62
       0
100
AcDbTrace
 10
92.8716964
 20
241.29498884
 30
0.0
 11
92.58667961
 21
240.51191166
 31
0.0
 12
95.07841956
 22
240.04839989
 32
0.0
 13
95.07841956
 23
240.04839989
 33
0.0
  0
MTEXT
  5
C8D
100
AcDbEntity
  8
0
 62
       0
100
AcDbMText
 10
75.00414854
 20
250.68039256
 30
0.0
 40
5.0
 41
0.0
 71
       5
 72
       1
  1
45
 11
0.93969262
 21
-0.34202014
 31
0.0
1001
ACAD
1000
MTEXTBEGIN
1070
      73
1070
       1
1070
      44
1040
1.0
1070
      74
1070
       0
1000
MTEXTEND
1000
MTEXTBEGIN
1070
      73
1070
       1
1070
      44
1040
1.0
1070
      74
1070
       0
1000
MTEXTEND
  0
POINT
  5
C8E
100
AcDbEntity
  8
DEFPOINTS
 62
       0
100
AcDbPoint
 10
57.0
 20
267.0
 30
0.0
  0
POINT
  5
C8F
100
AcDbEntity
  8
DEFPOINTS
 62
       0
100
AcDbPoint
 10
99.28616794
 20
251.60909355
 30
0.0
  0
POINT
  5
C90
100
AcDbEntity
  8
DEFPOINTS
 62
       0
100
AcDbPoint
 10
95.07841956
 20
240.04839989
 30
0.0
  0
ENDBLK
  5
C92
100
AcDbEntity
  8
0
100
AcDbBlockEnd
  0
BLOCK
  5
CA0
100
AcDbEntity
  8
0
100
AcDbBlockBegin
  2
*D22
 70
      65
 10
0.0
 20
0.0
 30
0.0
  3
*D22
  1

  0
LINE
  5
C95
100
AcDbEntity
  8
0
 62
       0
100
AcDbLine
 10
49.93875254
 20
249.03284045
 30
0.0
 11
38.668502
 21
253.13487618
 31
0.0
1001
ACAD
1000
RTLwPs
1070
     158
  0
LINE
  5
C96
100
AcDbEntity
  8
0
 62
       0
100
AcDbLine
 10
47.88663168
 20
243.39468473
 30
0.0
 11
36.61638114
 21
247.49672046
 31
0.0
1001
ACAD
1000
RTLwPs
1070
     158
  0
LINE
  5
C97
100
AcDbEntity
  8
0
 62
       0
100
AcDbLine
 10
40.69816813
 20
255.05658256
 30
0.0
 11
41.55321849
 21
257.40581411
 31
0.0
1001
ACAD
1000
RTLwPs
1070
     158
  0
LINE
  5
C98
100
AcDbEntity
  8
0
 62
       0
100
AcDbLine
 10
36.93594656
 20
244.71996373
 30
0.0
 11
36.0808962
 21
242.37073217
 31
0.0
1001
ACAD
1000
RTLwPs
1070
     158
  0
LINE
  5
C99
100
AcDbEntity
  8
0
 62
       0
100
AcDbLine
 10
39.84311777
 20
252.707351
 30
0.0
 11
37.79099691
 21
247.06919528
 31
0.0
1001
ACAD
1000
RTLwPs
1070
     158
  0
SOLID
  5
C9A
100
AcDbEntity
  8
0
 62
       0
100
AcDbTrace
 10
40.30662954
 20
255.19909095
 30
0.0
 11
41.08970672
 21
254.91407416
 31
0.0
 12
39.84311777
 22
252.707351
 32
0.0
 13
39.84311777
 23
252.707351
 33
0.0
  0
SOLID
  5
C9B
100
AcDbEntity
  8
0
 62
       0
100
AcDbTrace
 10
36.54440796
 20
244.86247212
 30
0.0
 11
37.32748515
 21
244.57745533
 31
0.0
 12
37.79099691
 22
247.06919528
 32
0.0
 13
37.79099691
 23
247.06919528
 33
0.0
  0
MTEXT
  5
C9C
100
AcDbEntity
  8
0
 62
       0
100
AcDbMText
 10
35.8805179
 20
250.95708609
 30
0.0
 40
5.0
 41
0.0
 71
       5
 72
       1
  1
6
 11
0.34202014
 21
0.93969262
 31
0.0
1001
ACAD
1000
MTEXTBEGIN
1070
      73
1070
       1
1070
      44
1040
1.0
1070
      74
1070
       0
1000
MTEXTEND
1000
MTEXTBEGIN
1070
      73
1070
       1
1070
      44
1040
1.0
1070
      74
1070
       0
1000
MTEXTEND
  0
POINT
  5
C9D
100
AcDbEntity
  8
DEFPOINTS
 62
       0
100
AcDbPoint
 10
50.52606043
 20
248.81907786
 30
0.0
  0
POINT
  5
C9E
100
AcDbEntity
  8
DEFPOINTS
 62
       0
100
AcDbPoint
 10
48.47393957
 20
243.18092214
 30
0.0
  0
POINT
  5
C9F
100
AcDbEntity
  8
DEFPOINTS
 62
       0
100
AcDbPoint
 10
37.79099691
 20
247.06919528
 30
0.0
  0
ENDBLK
  5
CA1
100
AcDbEntity
  8
0
100
AcDbBlockEnd
  0
BLOCK
  5
CAD
100
AcDbEntity
  8
0
100
AcDbBlockBegin
  2
*D23
 70
      65
 10
0.0
 20
0.0
 30
0.0
  3
*D23
  1

  0
LINE
  5
190E
100
AcDbEntity
  8
0
 62
       0
100
AcDbLine
 10
-0.0
 20
12.375
 30
0.0
 11
-0.0
 21
-37.26573262
 31
0.0
1001
ACAD
1000
RTLwPs
1070
     158
  0
LINE
  5
190F
100
AcDbEntity
  8
0
 62
       0
100
AcDbLine
 10
91.78616794
 20
54.76590645
 30
0.0
 11
91.78616794
 21
-37.26573262
 31
0.0
1001
ACAD
1000
RTLwPs
1070
     158
  0
LINE
  5
1910
100
AcDbEntity
  8
0
 62
       0
100
AcDbLine
 10
2.5
 20
-36.01573262
 30
0.0
 11
89.28616794
 21
-36.01573262
 31
0.0
1001
ACAD
1000
RTLwPs
1070
     158
  0
SOLID
  5
1911
100
AcDbEntity
  8
0
 62
       0
100
AcDbTrace
 10
2.5
 20
-35.59906596
 30
0.0
 11
2.5
 21
-36.43239929
 31
0.0
 12
-0.0
 22
-36.01573262
 32
0.0
 13
-0.0
 23
-36.01573262
 33
0.0
  0
SOLID
  5
1912
100
AcDbEntity
  8
0
 62
       0
100
AcDbTrace
 10
89.28616794
 20
-35.59906596
 30
0.0
 11
89.28616794
 21
-36.43239929
 31
0.0
 12
91.78616794
 22
-36.01573262
 32
0.0
 13
91.78616794
 23
-36.01573262
 33
0.0
  0
MTEXT
  5
1913
100
AcDbEntity
  8
0
 62
       0
100
AcDbMText
 10
45.89308397
 20
-32.47406596
 30
0.0
 40
5.0
 41
0.0
 71
       5
 72
       1
  1
91,8
1001
ACAD
1000
MTEXTBEGIN
1070
      73
1070
       1
1070
      44
1040
1.0
1070
      74
1070
       0
1000
MTEXTEND
1000
MTEXTBEGIN
1070
      73
1070
       1
1070
      44
1040
1.0
1070
      74
1070
       0
1000
MTEXTEND
  0
POINT
  5
1914
100
AcDbEntity
  8
DEFPOINTS
 62
       0
100
AcDbPoint
 10
0.0
 20
13.0
 30
0.0
  0
POINT
  5
1915
100
AcDbEntity
  8
DEFPOINTS
 62
       0
100
AcDbPoint
 10
91.78616794
 20
55.39090645
 30
0.0
  0
POINT
  5
1916
100
AcDbEntity
  8
DEFPOINTS
 62
       0
100
AcDbPoint
 10
91.78616794
 20
-36.01573262
 30
0.0
  0
ENDBLK
  5
CAE
100
AcDbEntity
  8
0
100
AcDbBlockEnd
  0
BLOCK
  5
CBA
100
AcDbEntity
  8
0
100
AcDbBlockBegin
  2
*D24
 70
      65
 10
0.0
 20
0.0
 30
0.0
  3
*D24
  1

  0
LINE
  5
1917
100
AcDbEntity
  8
0
 62
       0
100
AcDbLine
 10
-0.0
 20
12.375
 30
0.0
 11
-0.0
 21
-49.57596708
 31
0.0
1001
ACAD
1000
RTLwPs
1070
     158
  0
LINE
  5
1918
100
AcDbEntity
  8
0
 62
       0
100
AcDbLine
 10
99.28616794
 20
33.76590645
 30
0.0
 11
99.28616794
 21
-49.57596708
 31
0.0
1001
ACAD
1000
RTLwPs
1070
     158
  0
LINE
  5
1919
100
AcDbEntity
  8
0
 62
       0
100
AcDbLine
 10
2.5
 20
-48.32596708
 30
0.0
 11
96.78616794
 21
-48.32596708
 31
0.0
1001
ACAD
1000
RTLwPs
1070
     158
  0
SOLID
  5
191A
100
AcDbEntity
  8
0
 62
       0
100
AcDbTrace
 10
2.5
 20
-47.90930041
 30
0.0
 11
2.5
 21
-48.74263374
 31
0.0
 12
-0.0
 22
-48.32596708
 32
0.0
 13
-0.0
 23
-48.32596708
 33
0.0
  0
SOLID
  5
191B
100
AcDbEntity
  8
0
 62
       0
100
AcDbTrace
 10
96.78616794
 20
-47.90930041
 30
0.0
 11
96.78616794
 21
-48.74263374
 31
0.0
 12
99.28616794
 22
-48.32596708
 32
0.0
 13
99.28616794
 23
-48.32596708
 33
0.0
  0
MTEXT
  5
191C
100
AcDbEntity
  8
0
 62
       0
100
AcDbMText
 10
49.64308397
 20
-44.78430041
 30
0.0
 40
5.0
 41
0.0
 71
       5
 72
       1
  1
99,3
1001
ACAD
1000
MTEXTBEGIN
1070
      73
1070
       1
1070
      44
1040
1.0
1070
      74
1070
       0
1000
MTEXTEND
1000
MTEXTBEGIN
1070
      73
1070
       1
1070
      44
1040
1.0
1070
      74
1070
       0
1000
MTEXTEND
  0
POINT
  5
191D
100
AcDbEntity
  8
DEFPOINTS
 62
       0
100
AcDbPoint
 10
0.0
 20
13.0
 30
0.0
  0
POINT
  5
191E
100
AcDbEntity
  8
DEFPOINTS
 62
       0
100
AcDbPoint
 10
99.28616794
 20
34.39090645
 30
0.0
  0
POINT
  5
191F
100
AcDbEntity
  8
DEFPOINTS
 62
       0
100
AcDbPoint
 10
99.28616794
 20
-48.32596708
 30
0.0
  0
ENDBLK
  5
CBB
100
AcDbEntity
  8
0
100
AcDbBlockEnd
  0
BLOCK
  5
CC7
100
AcDbEntity
  8
0
100
AcDbBlockBegin
  2
*D25
 70
      65
 10
0.0
 20
0.0
 30
0.0
  3
*D25
  1

  0
LINE
  5
18AB
100
AcDbEntity
  8
0
 62
       0
100
AcDbLine
 10
-0.625
 20
-0.00608619
 30
0.0
 11
-24.08218472
 21
-0.00608619
 31
0.0
1001
ACAD
1000
RTLwPs
1070
     158
  0
LINE
  5
18AC
100
AcDbEntity
  8
0
 62
       0
100
AcDbLine
 10
98.66116794
 20
34.39090645
 30
0.0
 11
-24.08218472
 21
34.39090645
 31
0.0
1001
ACAD
1000
RTLwPs
1070
     158
  0
LINE
  5
18AD
100
AcDbEntity
  8
0
 62
       0
100
AcDbLine
 10
-22.83218472
 20
2.49391381
 30
0.0
 11
-22.83218472
 21
31.89090645
 31
0.0
1001
ACAD
1000
RTLwPs
1070
     158
  0
SOLID
  5
18AE
100
AcDbEntity
  8
0
 62
       0
100
AcDbTrace
 10
-23.24885139
 20
2.49391381
 30
0.0
 11
-22.41551805
 21
2.49391381
 31
0.0
 12
-22.83218472
 22
-0.00608619
 32
0.0
 13
-22.83218472
 23
-0.00608619
 33
0.0
  0
SOLID
  5
18AF
100
AcDbEntity
  8
0
 62
       0
100
AcDbTrace
 10
-23.24885139
 20
31.89090645
 30
0.0
 11
-22.41551805
 21
31.89090645
 31
0.0
 12
-22.83218472
 22
34.39090645
 32
0.0
 13
-22.83218472
 23
34.39090645
 33
0.0
  0
MTEXT
  5
18B0
100
AcDbEntity
  8
0
 62
       0
100
AcDbMText
 10
-26.37385139
 20
17.19241013
 30
0.0
 40
5.0
 41
0.0
 71
       5
 72
       1
  1
34,4
 11
0.0
 21
1.0
 31
0.0
1001
ACAD
1000
MTEXTBEGIN
1070
      73
1070
       1
1070
      44
1040
1.0
1070
      74
1070
       0
1000
MTEXTEND
1000
MTEXTBEGIN
1070
      73
1070
       1
1070
      44
1040
1.0
1070
      74
1070
       0
1000
MTEXTEND
  0
POINT
  5
18B1
100
AcDbEntity
  8
DEFPOINTS
 62
       0
100
AcDbPoint
 10
-0.0
 20
-0.00608619
 30
0.0
  0
POINT
  5
18B2
100
AcDbEntity
  8
DEFPOINTS
 62
       0
100
AcDbPoint
 10
99.28616794
 20
34.39090645
 30
0.0
  0
POINT
  5
18B3
100
AcDbEntity
  8
DEFPOINTS
 62
       0
100
AcDbPoint
 10
-22.83218472
 20
34.39090645
 30
0.0
  0
ENDBLK
  5
CC8
100
AcDbEntity
  8
0
100
AcDbBlockEnd
  0
BLOCK
  5
CD4
100
AcDbEntity
  8
0
100
AcDbBlockBegin
  2
*D26
 70
      65
 10
0.0
 20
0.0
 30
0.0
  3
*D26
  1

  0
LINE
  5
18E1
100
AcDbEntity
  8
0
 62
       0
100
AcDbLine
 10
-0.625
 20
-0.00608619
 30
0.0
 11
-48.16999613
 21
-0.00608619
 31
0.0
1001
ACAD
1000
RTLwPs
1070
     158
  0
LINE
  5
18E2
100
AcDbEntity
  8
0
 62
       0
100
AcDbLine
 10
91.16116794
 20
55.39090645
 30
0.0
 11
-48.16999613
 21
55.39090645
 31
0.0
1001
ACAD
1000
RTLwPs
1070
     158
  0
LINE
  5
18E3
100
AcDbEntity
  8
0
 62
       0
100
AcDbLine
 10
-46.91999613
 20
2.49391381
 30
0.0
 11
-46.91999613
 21
52.89090645
 31
0.0
1001
ACAD
1000
RTLwPs
1070
     158
  0
SOLID
  5
18E4
100
AcDbEntity
  8
0
 62
       0
100
AcDbTrace
 10
-47.3366628
 20
2.49391381
 30
0.0
 11
-46.50332947
 21
2.49391381
 31
0.0
 12
-46.91999613
 22
-0.00608619
 32
0.0
 13
-46.91999613
 23
-0.00608619
 33
0.0
  0
SOLID
  5
18E5
100
AcDbEntity
  8
0
 62
       0
100
AcDbTrace
 10
-47.3366628
 20
52.89090645
 30
0.0
 11
-46.50332947
 21
52.89090645
 31
0.0
 12
-46.91999613
 22
55.39090645
 32
0.0
 13
-46.91999613
 23
55.39090645
 33
0.0
  0
MTEXT
  5
18E6
100
AcDbEntity
  8
0
 62
       0
100
AcDbMText
 10
-50.4616628
 20
27.69241013
 30
0.0
 40
5.0
 41
0.0
 71
       5
 72
       1
  1
55,4
 11
0.0
 21
1.0
 31
0.0
1001
ACAD
1000
MTEXTBEGIN
1070
      73
1070
       1
1070
      44
1040
1.0
1070
      74
1070
       0
1000
MTEXTEND
1000
MTEXTBEGIN
1070
      73
1070
       1
1070
      44
1040
1.0
1070
      74
1070
       0
1000
MTEXTEND
  0
POINT
  5
18E7
100
AcDbEntity
  8
DEFPOINTS
 62
       0
100
AcDbPoint
 10
-0.0
 20
-0.00608619
 30
0.0
  0
POINT
  5
18E8
100
AcDbEntity
  8
DEFPOINTS
 62
       0
100
AcDbPoint
 10
91.78616794
 20
55.39090645
 30
0.0
  0
POINT
  5
18E9
100
AcDbEntity
  8
DEFPOINTS
 62
       0
100
AcDbPoint
 10
-46.91999613
 20
55.39090645
 30
0.0
  0
ENDBLK
  5
CD5
100
AcDbEntity
  8
0
100
AcDbBlockEnd
  0
BLOCK
  5
DBC
100
AcDbEntity
  8
0
100
AcDbBlockBegin
  2
*D27
 70
      65
 10
0.0
 20
0.0
 30
0.0
  3
*D27
  1

  0
LINE
  5
1359
100
AcDbEntity
  8
0
 62
       0
100
AcDbLine
 10
63.0
 20
117.55774711
 30
0.0
 11
63.0
 21
104.00286535
 31
0.0
1001
ACAD
1000
RTLwPs
1070
     158
  0
LINE
  5
135A
100
AcDbEntity
  8
0
 62
       0
100
AcDbLine
 10
343.0
 20
117.14108045
 30
0.0
 11
343.0
 21
104.00286535
 31
0.0
1001
ACAD
1000
RTLwPs
1070
     158
  0
LINE
  5
135B
100
AcDbEntity
  8
0
 62
       0
100
AcDbLine
 10
65.5
 20
105.25286535
 30
0.0
 11
340.5
 21
105.25286535
 31
0.0
1001
ACAD
1000
RTLwPs
1070
     158
  0
SOLID
  5
135C
100
AcDbEntity
  8
0
 62
       0
100
AcDbTrace
 10
65.5
 20
105.66953201
 30
0.0
 11
65.5
 21
104.83619868
 31
0.0
 12
63.0
 22
105.25286535
 32
0.0
 13
63.0
 23
105.25286535
 33
0.0
  0
SOLID
  5
135D
100
AcDbEntity
  8
0
 62
       0
100
AcDbTrace
 10
340.5
 20
105.66953201
 30
0.0
 11
340.5
 21
104.83619868
 31
0.0
 12
343.0
 22
105.25286535
 32
0.0
 13
343.0
 23
105.25286535
 33
0.0
  0
MTEXT
  5
135E
100
AcDbEntity
  8
0
 62
       0
100
AcDbMText
 10
201.75
 20
108.37786535
 30
0.0
 40
5.0
 41
0.0
 71
       5
 72
       1
  1
280
1001
ACAD
1000
MTEXTBEGIN
1070
      73
1070
       1
1070
      44
1040
1.0
1070
      74
1070
       0
1000
MTEXTEND
1000
MTEXTBEGIN
1070
      73
1070
       1
1070
      44
1040
1.0
1070
      74
1070
       0
1000
MTEXTEND
  0
POINT
  5
135F
100
AcDbEntity
  8
DEFPOINTS
 62
       0
100
AcDbPoint
 10
63.0
 20
118.18274711
 30
0.0
  0
POINT
  5
1360
100
AcDbEntity
  8
DEFPOINTS
 62
       0
100
AcDbPoint
 10
343.0
 20
117.76608045
 30
0.0
  0
POINT
  5
1361
100
AcDbEntity
  8
DEFPOINTS
 62
       0
100
AcDbPoint
 10
343.0
 20
105.25286535
 30
0.0
  0
ENDBLK
  5
DBD
100
AcDbEntity
  8
0
100
AcDbBlockEnd
  0
BLOCK
  5
F08
100
AcDbEntity
  8
0
100
AcDbBlockBegin
  2
*D28
 70
      65
 10
0.0
 20
0.0
 30
0.0
  3
*D28
  1

  0
LINE
  5
EFF
100
AcDbEntity
  8
0
 62
       0
100
AcDbLine
 10
19.625
 20
165.5
 30
0.0
 11
36.3237705
 21
165.5
 31
0.0
1001
ACAD
1000
RTLwPs
1070
     158
  0
LINE
  5
F00
100
AcDbEntity
  8
0
 62
       0
100
AcDbLine
 10
19.625
 20
120.5
 30
0.0
 11
36.3237705
 21
120.5
 31
0.0
1001
ACAD
1000
RTLwPs
1070
     158
  0
LINE
  5
F01
100
AcDbEntity
  8
0
 62
       0
100
AcDbLine
 10
35.0737705
 20
163.0
 30
0.0
 11
35.0737705
 21
123.0
 31
0.0
1001
ACAD
1000
RTLwPs
1070
     158
  0
SOLID
  5
F02
100
AcDbEntity
  8
0
 62
       0
100
AcDbTrace
 10
34.65710383
 20
163.0
 30
0.0
 11
35.49043716
 21
163.0
 31
0.0
 12
35.0737705
 22
165.5
 32
0.0
 13
35.0737705
 23
165.5
 33
0.0
  0
SOLID
  5
F03
100
AcDbEntity
  8
0
 62
       0
100
AcDbTrace
 10
34.65710383
 20
123.0
 30
0.0
 11
35.49043716
 21
123.0
 31
0.0
 12
35.0737705
 22
120.5
 32
0.0
 13
35.0737705
 23
120.5
 33
0.0
  0
MTEXT
  5
F04
100
AcDbEntity
  8
0
 62
       0
100
AcDbMText
 10
31.9487705
 20
143.0
 30
0.0
 40
5.0
 41
0.0
 71
       5
 72
       1
  1
45
 11
0.0
 21
1.0
 31
0.0
1001
ACAD
1000
MTEXTBEGIN
1070
      73
1070
       1
1070
      44
1040
1.0
1070
      74
1070
       0
1000
MTEXTEND
1000
MTEXTBEGIN
1070
      73
1070
       1
1070
      44
1040
1.0
1070
      74
1070
       0
1000
MTEXTEND
  0
POINT
  5
F05
100
AcDbEntity
  8
DEFPOINTS
 62
       0
100
AcDbPoint
 10
19.0
 20
165.5
 30
0.0
  0
POINT
  5
F06
100
AcDbEntity
  8
DEFPOINTS
 62
       0
100
AcDbPoint
 10
19.0
 20
120.5
 30
0.0
  0
POINT
  5
F07
100
AcDbEntity
  8
DEFPOINTS
 62
       0
100
AcDbPoint
 10
35.0737705
 20
120.5
 30
0.0
  0
ENDBLK
  5
F09
100
AcDbEntity
  8
0
100
AcDbBlockEnd
  0
BLOCK
  5
F31
100
AcDbEntity
  8
0
100
AcDbBlockBegin
  2
*D29
 70
      65
 10
0.0
 20
0.0
 30
0.0
  3
*D29
  1

  0
LINE
  5
FD0
100
AcDbEntity
  8
0
 62
       0
100
AcDbLine
 10
16.0
 20
164.875
 30
0.0
 11
16.0
 21
144.25
 31
0.0
1001
ACAD
1000
RTLwPs
1070
     158
  0
LINE
  5
FD1
100
AcDbEntity
  8
0
 62
       0
100
AcDbLine
 10
22.0
 20
164.875
 30
0.0
 11
22.0
 21
144.25
 31
0.0
1001
ACAD
1000
RTLwPs
1070
     158
  0
LINE
  5
FD2
100
AcDbEntity
  8
0
 62
       0
100
AcDbLine
 10
13.5
 20
145.5
 30
0.0
 11
11.0
 21
145.5
 31
0.0
1001
ACAD
1000
RTLwPs
1070
     158
  0
LINE
  5
FD3
100
AcDbEntity
  8
0
 62
       0
100
AcDbLine
 10
24.5
 20
145.5
 30
0.0
 11
27.0
 21
145.5
 31
0.0
1001
ACAD
1000
RTLwPs
1070
     158
  0
LINE
  5
FD4
100
AcDbEntity
  8
0
 62
       0
100
AcDbLine
 10
16.0
 20
145.5
 30
0.0
 11
22.0
 21
145.5
 31
0.0
1001
ACAD
1000
RTLwPs
1070
     158
  0
SOLID
  5
FD5
100
AcDbEntity
  8
0
 62
       0
100
AcDbTrace
 10
13.5
 20
145.91666667
 30
0.0
 11
13.5
 21
145.08333333
 31
0.0
 12
16.0
 22
145.5
 32
0.0
 13
16.0
 23
145.5
 33
0.0
  0
SOLID
  5
FD6
100
AcDbEntity
  8
0
 62
       0
100
AcDbTrace
 10
24.5
 20
145.91666667
 30
0.0
 11
24.5
 21
145.08333333
 31
0.0
 12
22.0
 22
145.5
 32
0.0
 13
22.0
 23
145.5
 33
0.0
  0
MTEXT
  5
FD7
100
AcDbEntity
  8
0
 62
       0
100
AcDbMText
 10
19.0
 20
148.625
 30
0.0
 40
5.0
 41
0.0
 71
       5
 72
       1
  1
6
1001
ACAD
1000
MTEXTBEGIN
1070
      73
1070
       1
1070
      44
1040
1.0
1070
      74
1070
       0
1000
MTEXTEND
1000
MTEXTBEGIN
1070
      73
1070
       1
1070
      44
1040
1.0
1070
      74
1070
       0
1000
MTEXTEND
  0
POINT
  5
FD8
100
AcDbEntity
  8
DEFPOINTS
 62
       0
100
AcDbPoint
 10
16.0
 20
165.5
 30
0.0
  0
POINT
  5
FD9
100
AcDbEntity
  8
DEFPOINTS
 62
       0
100
AcDbPoint
 10
22.0
 20
165.5
 30
0.0
  0
POINT
  5
FDA
100
AcDbEntity
  8
DEFPOINTS
 62
       0
100
AcDbPoint
 10
22.0
 20
145.5
 30
0.0
  0
ENDBLK
  5
F32
100
AcDbEntity
  8
0
100
AcDbBlockEnd
  0
BLOCK
  5
10D1
100
AcDbEntity
  8
0
100
AcDbBlockBegin
  2
*D30
 70
      65
 10
0.0
 20
0.0
 30
0.0
  3
*D30
  1

  0
LINE
  5
10C8
100
AcDbEntity
  8
0
 62
       0
100
AcDbLine
 10
381.625
 20
229.0
 30
0.0
 11
394.0931643
 21
229.0
 31
0.0
1001
ACAD
1000
RTLwPs
1070
     158
  0
LINE
  5
10C9
100
AcDbEntity
  8
0
 62
       0
100
AcDbLine
 10
381.625
 20
176.0
 30
0.0
 11
394.0931643
 21
176.0
 31
0.0
1001
ACAD
1000
RTLwPs
1070
     158
  0
LINE
  5
10CA
100
AcDbEntity
  8
0
 62
       0
100
AcDbLine
 10
392.8431643
 20
226.5
 30
0.0
 11
392.8431643
 21
178.5
 31
0.0
1001
ACAD
1000
RTLwPs
1070
     158
  0
SOLID
  5
10CB
100
AcDbEntity
  8
0
 62
       0
100
AcDbTrace
 10
392.42649764
 20
226.5
 30
0.0
 11
393.25983097
 21
226.5
 31
0.0
 12
392.8431643
 22
229.0
 32
0.0
 13
392.8431643
 23
229.0
 33
0.0
  0
SOLID
  5
10CC
100
AcDbEntity
  8
0
 62
       0
100
AcDbTrace
 10
392.42649764
 20
178.5
 30
0.0
 11
393.25983097
 21
178.5
 31
0.0
 12
392.8431643
 22
176.0
 32
0.0
 13
392.8431643
 23
176.0
 33
0.0
  0
MTEXT
  5
10CD
100
AcDbEntity
  8
0
 62
       0
100
AcDbMText
 10
389.7181643
 20
202.5
 30
0.0
 40
5.0
 41
0.0
 71
       5
 72
       1
  1
53
 11
0.0
 21
1.0
 31
0.0
1001
ACAD
1000
MTEXTBEGIN
1070
      73
1070
       1
1070
      44
1040
1.0
1070
      74
1070
       0
1000
MTEXTEND
1000
MTEXTBEGIN
1070
      73
1070
       1
1070
      44
1040
1.0
1070
      74
1070
       0
1000
MTEXTEND
  0
POINT
  5
10CE
100
AcDbEntity
  8
DEFPOINTS
 62
       0
100
AcDbPoint
 10
381.0
 20
229.0
 30
0.0
  0
POINT
  5
10CF
100
AcDbEntity
  8
DEFPOINTS
 62
       0
100
AcDbPoint
 10
381.0
 20
176.0
 30
0.0
  0
POINT
  5
10D0
100
AcDbEntity
  8
DEFPOINTS
 62
       0
100
AcDbPoint
 10
392.8431643
 20
176.0
 30
0.0
  0
ENDBLK
  5
10D2
100
AcDbEntity
  8
0
100
AcDbBlockEnd
  0
BLOCK
  5
1168
100
AcDbEntity
  8
0
100
AcDbBlockBegin
  2
*D31
 70
      65
 10
0.0
 20
0.0
 30
0.0
  3
*D31
  1

  0
LINE
  5
115E
100
AcDbEntity
  8
0
 62
       0
100
AcDbLine
 10
58.75
 20
147.875
 30
0.0
 11
58.75
 21
153.68203604
 31
0.0
1001
ACAD
1000
RTLwPs
1070
     158
  0
LINE
  5
115F
100
AcDbEntity
  8
0
 62
       0
100
AcDbLine
 10
67.25
 20
147.875
 30
0.0
 11
67.25
 21
153.68203604
 31
0.0
1001
ACAD
1000
RTLwPs
1070
     158
  0
LINE
  5
1160
100
AcDbEntity
  8
0
 62
       0
100
AcDbLine
 10
61.25
 20
152.43203604
 30
0.0
 11
64.75
 21
152.43203604
 31
0.0
1001
ACAD
1000
RTLwPs
1070
     158
  0
LINE
  5
1161
100
AcDbEntity
  8
0
 62
       0
100
AcDbLine
 10
67.25
 20
152.43203604
 30
0.0
 11
81.83333333
 21
152.43203604
 31
0.0
1001
ACAD
1000
RTLwPs
1070
     158
  0
SOLID
  5
1162
100
AcDbEntity
  8
0
 62
       0
100
AcDbTrace
 10
61.25
 20
152.84870271
 30
0.0
 11
61.25
 21
152.01536938
 31
0.0
 12
58.75
 22
152.43203604
 32
0.0
 13
58.75
 23
152.43203604
 33
0.0
  0
SOLID
  5
1163
100
AcDbEntity
  8
0
 62
       0
100
AcDbTrace
 10
64.75
 20
152.84870271
 30
0.0
 11
64.75
 21
152.01536938
 31
0.0
 12
67.25
 22
152.43203604
 32
0.0
 13
67.25
 23
152.43203604
 33
0.0
  0
MTEXT
  5
1164
100
AcDbEntity
  8
0
 62
       0
100
AcDbMText
 10
75.79166667
 20
155.97370271
 30
0.0
 40
5.0
 41
0.0
 71
       5
 72
       1
  1
8,5
1001
ACAD
1000
MTEXTBEGIN
1070
      73
1070
       1
1070
      44
1040
1.0
1070
      74
1070
       0
1000
MTEXTEND
1000
MTEXTBEGIN
1070
      73
1070
       1
1070
      44
1040
1.0
1070
      74
1070
       0
1000
MTEXTEND
  0
POINT
  5
1165
100
AcDbEntity
  8
DEFPOINTS
 62
       0
100
AcDbPoint
 10
58.75
 20
147.25
 30
0.0
  0
POINT
  5
1166
100
AcDbEntity
  8
DEFPOINTS
 62
       0
100
AcDbPoint
 10
67.25
 20
147.25
 30
0.0
  0
POINT
  5
1167
100
AcDbEntity
  8
DEFPOINTS
 62
       0
100
AcDbPoint
 10
67.25
 20
152.43203604
 30
0.0
  0
ENDBLK
  5
1169
100
AcDbEntity
  8
0
100
AcDbBlockEnd
  0
BLOCK
  5
1184
100
AcDbEntity
  8
0
100
AcDbBlockBegin
  2
*D32
 70
      65
 10
0.0
 20
0.0
 30
0.0
  3
*D32
  1

  0
LINE
  5
1186
100
AcDbEntity
  8
0
 62
       0
100
AcDbLine
 10
66.625
 20
138.75
 30
0.0
 11
49.24893258
 21
138.75
 31
0.0
1001
ACAD
1000
RTLwPs
1070
     158
  0
LINE
  5
1187
100
AcDbEntity
  8
0
 62
       0
100
AcDbLine
 10
66.625
 20
147.25
 30
0.0
 11
49.24893258
 21
147.25
 31
0.0
1001
ACAD
1000
RTLwPs
1070
     158
  0
LINE
  5
1188
100
AcDbEntity
  8
0
 62
       0
100
AcDbLine
 10
50.49893258
 20
141.25
 30
0.0
 11
50.49893258
 21
144.75
 31
0.0
1001
ACAD
1000
RTLwPs
1070
     158
  0
LINE
  5
1189
100
AcDbEntity
  8
0
 62
       0
100
AcDbLine
 10
50.49893258
 20
147.25
 30
0.0
 11
50.49893258
 21
161.83333333
 31
0.0
1001
ACAD
1000
RTLwPs
1070
     158
  0
SOLID
  5
118A
100
AcDbEntity
  8
0
 62
       0
100
AcDbTrace
 10
50.08226591
 20
141.25
 30
0.0
 11
50.91559924
 21
141.25
 31
0.0
 12
50.49893258
 22
138.75
 32
0.0
 13
50.49893258
 23
138.75
 33
0.0
  0
SOLID
  5
118B
100
AcDbEntity
  8
0
 62
       0
100
AcDbTrace
 10
50.08226591
 20
144.75
 30
0.0
 11
50.91559924
 21
144.75
 31
0.0
 12
50.49893258
 22
147.25
 32
0.0
 13
50.49893258
 23
147.25
 33
0.0
  0
MTEXT
  5
118C
100
AcDbEntity
  8
0
 62
       0
100
AcDbMText
 10
46.95726591
 20
155.79166667
 30
0.0
 40
5.0
 41
0.0
 71
       5
 72
       1
  1
8,5
 11
0.0
 21
1.0
 31
0.0
1001
ACAD
1000
MTEXTBEGIN
1070
      73
1070
       1
1070
      44
1040
1.0
1070
      74
1070
       0
1000
MTEXTEND
1000
MTEXTBEGIN
1070
      73
1070
       1
1070
      44
1040
1.0
1070
      74
1070
       0
1000
MTEXTEND
  0
POINT
  5
118D
100
AcDbEntity
  8
DEFPOINTS
 62
       0
100
AcDbPoint
 10
67.25
 20
138.75
 30
0.0
  0
POINT
  5
118E
100
AcDbEntity
  8
DEFPOINTS
 62
       0
100
AcDbPoint
 10
67.25
 20
147.25
 30
0.0
  0
POINT
  5
118F
100
AcDbEntity
  8
DEFPOINTS
 62
       0
100
AcDbPoint
 10
50.49893258
 20
147.25
 30
0.0
  0
ENDBLK
  5
1185
100
AcDbEntity
  8
0
100
AcDbBlockEnd
  0
BLOCK
  5
11E6
100
AcDbEntity
  8
0
100
AcDbBlockBegin
  2
*D33
 70
      65
 10
0.0
 20
0.0
 30
0.0
  3
*D33
  1

  0
ARC
  5
1AB1
100
AcDbEntity
  8
0
 62
       0
100
AcDbCircle
 10
-124.98997996
 20
94.14060333
 30
0.0
 40
28.04394893
100
AcDbArc
 50
266.10937035
 51
411.89062965
  0
SOLID
  5
1AB2
100
AcDbEntity
  8
0
 62
       0
100
AcDbTrace
 10
-126.93959435
 20
65.74725168
 30
0.0
 11
-126.84604863
 21
66.57531789
 31
0.0
 12
-129.37702011
 22
66.44192194
 32
0.0
 13
-129.37702011
 23
66.44192194
 33
0.0
  0
SOLID
  5
1AB3
100
AcDbEntity
  8
0
 62
       0
100
AcDbTrace
 10
-107.92453163
 20
115.86755492
 30
0.0
 11
-107.4399652
 21
116.54552234
 31
0.0
 12
-109.71615068
 22
117.66023791
 32
0.0
 13
-109.71615068
 23
117.66023791
 33
0.0
  0
MTEXT
  5
1AB4
100
AcDbEntity
  8
0
 62
       0
100
AcDbMText
 10
-101.72613699
 20
85.21045069
 30
0.0
 40
5.0
 41
0.0
 71
       5
 72
       1
  1
156°
 11
0.35836795
 21
0.93358043
 31
0.0
  0
POINT
  5
1AB5
100
AcDbEntity
  8
DEFPOINTS
 62
       0
100
AcDbPoint
 10
-105.86405278
 20
73.63055747
 30
0.0
  0
POINT
  5
1AB6
100
AcDbEntity
  8
DEFPOINTS
 62
       0
100
AcDbPoint
 10
-139.90793509
 20
-0.04765846
 30
0.0
  0
POINT
  5
1AB7
100
AcDbEntity
  8
DEFPOINTS
 62
       0
100
AcDbPoint
 10
-124.98997996
 20
94.14060333
 30
0.0
  0
POINT
  5
1AB8
100
AcDbEntity
  8
DEFPOINTS
 62
       0
100
AcDbPoint
 10
-106.88020331
 20
122.02721389
 30
0.0
  0
POINT
  5
1AB9
100
AcDbEntity
  8
DEFPOINTS
 62
       0
100
AcDbPoint
 10
-124.98997996
 20
94.14060333
 30
0.0
  0
ENDBLK
  5
11E7
100
AcDbEntity
  8
0
100
AcDbBlockEnd
  0
BLOCK
  5
11F3
100
AcDbEntity
  8
0
100
AcDbBlockBegin
  2
*D34
 70
      65
 10
0.0
 20
0.0
 30
0.0
  3
*D34
  1

  0
ARC
  5
1ABA
100
AcDbEntity
  8
0
 62
       0
100
AcDbCircle
 10
-109.88020331
 20
122.91585438
 30
0.0
 40
21.59191024
100
AcDbArc
 50
96.63765174
 51
230.36234826
  0
SOLID
  5
1ABB
100
AcDbEntity
  8
0
 62
       0
100
AcDbTrace
 10
-112.40013212
 20
144.77900234
 30
0.0
 11
-112.35188875
 21
143.94706664
 31
0.0
 12
-109.88020331
 22
144.50776462
 32
0.0
 13
-109.88020331
 23
144.50776462
 33
0.0
  0
SOLID
  5
1ABC
100
AcDbEntity
  8
0
 62
       0
100
AcDbTrace
 10
-123.40755229
 20
106.62377202
 30
0.0
 11
-123.90111725
 21
105.95232725
 31
0.0
 12
-121.64000047
 22
104.80735475
 32
0.0
 13
-121.64000047
 23
104.80735475
 33
0.0
  0
MTEXT
  5
1ABD
100
AcDbEntity
  8
0
 62
       0
100
AcDbMText
 10
-133.57926464
 20
129.93583616
 30
0.0
 40
5.0
 41
0.0
 71
       5
 72
       1
  1
147°
 11
0.28401534
 21
0.95881973
 31
0.0
  0
POINT
  5
1ABE
100
AcDbEntity
  8
DEFPOINTS
 62
       0
100
AcDbPoint
 10
-126.17582483
 20
137.08142205
 30
0.0
  0
POINT
  5
1ABF
100
AcDbEntity
  8
DEFPOINTS
 62
       0
100
AcDbPoint
 10
-127.85329147
 20
95.23972564
 30
0.0
  0
POINT
  5
1AC0
100
AcDbEntity
  8
DEFPOINTS
 62
       0
100
AcDbPoint
 10
-109.88020331
 20
122.91585438
 30
0.0
  0
POINT
  5
1AC1
100
AcDbEntity
  8
DEFPOINTS
 62
       0
100
AcDbPoint
 10
-109.88020331
 20
150.91585438
 30
0.0
  0
POINT
  5
1AC2
100
AcDbEntity
  8
DEFPOINTS
 62
       0
100
AcDbPoint
 10
-109.88020331
 20
122.91585438
 30
0.0
  0
ENDBLK
  5
11F4
100
AcDbEntity
  8
0
100
AcDbBlockEnd
  0
BLOCK
  5
1235
100
AcDbEntity
  8
0
100
AcDbBlockBegin
  2
*D35
 70
      65
 10
0.0
 20
0.0
 30
0.0
  3
*D35
  1

  0
LINE
  5
17B2
100
AcDbEntity
  8
0
 62
       0
100
AcDbLine
 10
-109.25520331
 20
150.91585438
 30
0.0
 11
-80.87942934
 21
150.91585438
 31
0.0
1001
ACAD
1000
RTLwPs
1070
     158
  0
LINE
  5
17B3
100
AcDbEntity
  8
0
 62
       0
100
AcDbLine
 10
-109.25520331
 20
122.91585438
 30
0.0
 11
-80.87942934
 21
122.91585438
 31
0.0
1001
ACAD
1000
RTLwPs
1070
     158
  0
LINE
  5
17B4
100
AcDbEntity
  8
0
 62
       0
100
AcDbLine
 10
-82.12942934
 20
148.41585438
 30
0.0
 11
-82.12942934
 21
125.41585438
 31
0.0
1001
ACAD
1000
RTLwPs
1070
     158
  0
SOLID
  5
17B5
100
AcDbEntity
  8
0
 62
       0
100
AcDbTrace
 10
-82.54609601
 20
148.41585438
 30
0.0
 11
-81.71276267
 21
148.41585438
 31
0.0
 12
-82.12942934
 22
150.91585438
 32
0.0
 13
-82.12942934
 23
150.91585438
 33
0.0
  0
SOLID
  5
17B6
100
AcDbEntity
  8
0
 62
       0
100
AcDbTrace
 10
-82.54609601
 20
125.41585438
 30
0.0
 11
-81.71276267
 21
125.41585438
 31
0.0
 12
-82.12942934
 22
122.91585438
 32
0.0
 13
-82.12942934
 23
122.91585438
 33
0.0
  0
MTEXT
  5
17B7
100
AcDbEntity
  8
0
 62
       0
100
AcDbMText
 10
-85.25442934
 20
136.91585438
 30
0.0
 40
5.0
 41
0.0
 71
       5
 72
       1
  1
28
 11
0.0
 21
1.0
 31
0.0
1001
ACAD
1000
MTEXTBEGIN
1070
      73
1070
       1
1070
      44
1040
1.0
1070
      74
1070
       0
1000
MTEXTEND
1000
MTEXTBEGIN
1070
      73
1070
       1
1070
      44
1040
1.0
1070
      74
1070
       0
1000
MTEXTEND
  0
POINT
  5
17B8
100
AcDbEntity
  8
DEFPOINTS
 62
       0
100
AcDbPoint
 10
-109.88020331
 20
150.91585438
 30
0.0
  0
POINT
  5
17B9
100
AcDbEntity
  8
DEFPOINTS
 62
       0
100
AcDbPoint
 10
-109.88020331
 20
122.91585438
 30
0.0
  0
POINT
  5
17BA
100
AcDbEntity
  8
DEFPOINTS
 62
       0
100
AcDbPoint
 10
-82.12942934
 20
122.91585438
 30
0.0
  0
ENDBLK
  5
1236
100
AcDbEntity
  8
0
100
AcDbBlockEnd
  0
BLOCK
  5
1242
100
AcDbEntity
  8
0
100
AcDbBlockBegin
  2
*D36
 70
      65
 10
0.0
 20
0.0
 30
0.0
  3
*D36
  1

  0
LINE
  5
1797
100
AcDbEntity
  8
0
 62
       0
100
AcDbLine
 10
-127.32912236
 20
178.93238252
 30
0.0
 11
-99.07118865
 21
197.28329924
 31
0.0
1001
ACAD
1000
RTLwPs
1070
     158
  0
LINE
  5
1798
100
AcDbEntity
  8
0
 62
       0
100
AcDbLine
 10
-109.35603421
 20
151.25625377
 30
0.0
 11
-81.0981005
 21
169.60717049
 31
0.0
1001
ACAD
1000
RTLwPs
1070
     158
  0
LINE
  5
1799
100
AcDbEntity
  8
0
 62
       0
100
AcDbLine
 10
-98.75792927
 20
194.50582402
 30
0.0
 11
-83.50803629
 21
171.02304812
 31
0.0
1001
ACAD
1000
RTLwPs
1070
     158
  0
SOLID
  5
179A
100
AcDbEntity
  8
0
 62
       0
100
AcDbTrace
 10
-98.4084832
 20
194.73275695
 30
0.0
 11
-99.10737534
 21
194.27889109
 31
0.0
 12
-100.11952686
 22
196.60250044
 32
0.0
 13
-100.11952686
 23
196.60250044
 33
0.0
  0
SOLID
  5
179B
100
AcDbEntity
  8
0
 62
       0
100
AcDbTrace
 10
-83.15859022
 20
171.24998105
 30
0.0
 11
-83.85748236
 21
170.79611519
 31
0.0
 12
-82.14643871
 22
168.9263717
 32
0.0
 13
-82.14643871
 23
168.9263717
 33
0.0
  0
MTEXT
  5
179C
100
AcDbEntity
  8
0
 62
       0
100
AcDbMText
 10
-88.51213726
 20
184.46643306
 30
0.0
 40
5.0
 41
0.0
 71
       5
 72
       1
  1
33
 11
0.54463904
 21
-0.83867057
 31
0.0
1001
ACAD
1000
MTEXTBEGIN
1070
      73
1070
       1
1070
      44
1040
1.0
1070
      74
1070
       0
1000
MTEXTEND
1000
MTEXTBEGIN
1070
      73
1070
       1
1070
      44
1040
1.0
1070
      74
1070
       0
1000
MTEXTEND
  0
POINT
  5
179D
100
AcDbEntity
  8
DEFPOINTS
 62
       0
100
AcDbPoint
 10
-127.85329147
 20
178.59198312
 30
0.0
  0
POINT
  5
179E
100
AcDbEntity
  8
DEFPOINTS
 62
       0
100
AcDbPoint
 10
-109.88020331
 20
150.91585438
 30
0.0
  0
POINT
  5
179F
100
AcDbEntity
  8
DEFPOINTS
 62
       0
100
AcDbPoint
 10
-82.14643871
 20
168.9263717
 30
0.0
  0
ENDBLK
  5
1243
100
AcDbEntity
  8
0
100
AcDbBlockEnd
  0
BLOCK
  5
124F
100
AcDbEntity
  8
0
100
AcDbBlockBegin
  2
*D37
 70
      65
 10
0.0
 20
0.0
 30
0.0
  3
*D37
  1

  0
LINE
  5
178E
100
AcDbEntity
  8
0
 62
       0
100
AcDbLine
 10
-143.48830532
 20
273.31229228
 30
0.0
 11
-174.50934886
 21
268.39904166
 31
0.0
1001
ACAD
1000
RTLwPs
1070
     158
  0
LINE
  5
178F
100
AcDbEntity
  8
0
 62
       0
100
AcDbLine
 10
-128.47059668
 20
178.49421158
 30
0.0
 11
-159.49164022
 21
173.58096096
 31
0.0
1001
ACAD
1000
RTLwPs
1070
     158
  0
LINE
  5
1790
100
AcDbEntity
  8
0
 62
       0
100
AcDbLine
 10
-172.88365227
 20
266.12536389
 30
0.0
 11
-158.64811596
 21
176.24572489
 31
0.0
1001
ACAD
1000
RTLwPs
1070
     158
  0
SOLID
  5
1791
100
AcDbEntity
  8
0
 62
       0
100
AcDbTrace
 10
-172.47211547
 20
266.19054491
 30
0.0
 11
-173.29518908
 21
266.06018286
 31
0.0
 12
-173.27473844
 22
268.59458474
 32
0.0
 13
-173.27473844
 23
268.59458474
 33
0.0
  0
SOLID
  5
1792
100
AcDbEntity
  8
0
 62
       0
100
AcDbTrace
 10
-158.23657915
 20
176.31090592
 30
0.0
 11
-159.05965276
 21
176.18054387
 31
0.0
 12
-158.25702979
 22
173.77650404
 32
0.0
 13
-158.25702979
 23
173.77650404
 33
0.0
  0
MTEXT
  5
1793
100
AcDbEntity
  8
0
 62
       0
100
AcDbMText
 10
-162.67935805
 20
221.67440209
 30
0.0
 40
5.0
 41
0.0
 71
       5
 72
       1
  1
96
 11
0.15643447
 21
-0.98768834
 31
0.0
1001
ACAD
1000
MTEXTBEGIN
1070
      73
1070
       1
1070
      44
1040
1.0
1070
      74
1070
       0
1000
MTEXTEND
1000
MTEXTBEGIN
1070
      73
1070
       1
1070
      44
1040
1.0
1070
      74
1070
       0
1000
MTEXTEND
  0
POINT
  5
1794
100
AcDbEntity
  8
DEFPOINTS
 62
       0
100
AcDbPoint
 10
-142.87100011
 20
273.41006382
 30
0.0
  0
POINT
  5
1795
100
AcDbEntity
  8
DEFPOINTS
 62
       0
100
AcDbPoint
 10
-127.85329147
 20
178.59198312
 30
0.0
  0
POINT
  5
1796
100
AcDbEntity
  8
DEFPOINTS
 62
       0
100
AcDbPoint
 10
-158.25702979
 20
173.77650404
 30
0.0
  0
ENDBLK
  5
1250
100
AcDbEntity
  8
0
100
AcDbBlockEnd
  0
BLOCK
  5
126E
100
AcDbEntity
  8
0
100
AcDbBlockBegin
  2
*D38
 70
      65
 10
0.0
 20
0.0
 30
0.0
  3
*D38
  1

  0
LINE
  5
1386
100
AcDbEntity
  8
0
 62
       0
100
AcDbLine
 10
63.0
 20
127.97883671
 30
0.0
 11
63.0
 21
115.89108045
 31
0.0
1001
ACAD
1000
RTLwPs
1070
     158
  0
LINE
  5
1387
100
AcDbEntity
  8
0
 62
       0
100
AcDbLine
 10
99.0
 20
138.125
 30
0.0
 11
99.0
 21
115.89108045
 31
0.0
1001
ACAD
1000
RTLwPs
1070
     158
  0
LINE
  5
1388
100
AcDbEntity
  8
0
 62
       0
100
AcDbLine
 10
65.5
 20
117.14108045
 30
0.0
 11
96.5
 21
117.14108045
 31
0.0
1001
ACAD
1000
RTLwPs
1070
     158
  0
SOLID
  5
1389
100
AcDbEntity
  8
0
 62
       0
100
AcDbTrace
 10
65.5
 20
117.55774711
 30
0.0
 11
65.5
 21
116.72441378
 31
0.0
 12
63.0
 22
117.14108045
 32
0.0
 13
63.0
 23
117.14108045
 33
0.0
  0
SOLID
  5
138A
100
AcDbEntity
  8
0
 62
       0
100
AcDbTrace
 10
96.5
 20
117.55774711
 30
0.0
 11
96.5
 21
116.72441378
 31
0.0
 12
99.0
 22
117.14108045
 32
0.0
 13
99.0
 23
117.14108045
 33
0.0
  0
MTEXT
  5
138B
100
AcDbEntity
  8
0
 62
       0
100
AcDbMText
 10
81.0
 20
120.26608045
 30
0.0
 40
5.0
 41
0.0
 71
       5
 72
       1
  1
36
1001
ACAD
1000
MTEXTBEGIN
1070
      73
1070
       1
1070
      44
1040
1.0
1070
      74
1070
       0
1000
MTEXTEND
1000
MTEXTBEGIN
1070
      73
1070
       1
1070
      44
1040
1.0
1070
      74
1070
       0
1000
MTEXTEND
  0
POINT
  5
138C
100
AcDbEntity
  8
DEFPOINTS
 62
       0
100
AcDbPoint
 10
63.0
 20
128.60383671
 30
0.0
  0
POINT
  5
138D
100
AcDbEntity
  8
DEFPOINTS
 62
       0
100
AcDbPoint
 10
99.0
 20
138.75
 30
0.0
  0
POINT
  5
138E
100
AcDbEntity
  8
DEFPOINTS
 62
       0
100
AcDbPoint
 10
99.0
 20
117.14108045
 30
0.0
  0
ENDBLK
  5
126F
100
AcDbEntity
  8
0
100
AcDbBlockEnd
  0
BLOCK
  5
1284
100
AcDbEntity
  8
0
100
AcDbBlockBegin
  2
*D39
 70
      65
 10
0.0
 20
0.0
 30
0.0
  3
*D39
  1

  0
LINE
  5
137D
100
AcDbEntity
  8
0
 62
       0
100
AcDbLine
 10
343.0
 20
138.125
 30
0.0
 11
343.0
 21
115.89108045
 31
0.0
1001
ACAD
1000
RTLwPs
1070
     158
  0
LINE
  5
137E
100
AcDbEntity
  8
0
 62
       0
100
AcDbLine
 10
379.0
 20
138.125
 30
0.0
 11
379.0
 21
115.89108045
 31
0.0
1001
ACAD
1000
RTLwPs
1070
     158
  0
LINE
  5
137F
100
AcDbEntity
  8
0
 62
       0
100
AcDbLine
 10
345.5
 20
117.14108045
 30
0.0
 11
376.5
 21
117.14108045
 31
0.0
1001
ACAD
1000
RTLwPs
1070
     158
  0
SOLID
  5
1380
100
AcDbEntity
  8
0
 62
       0
100
AcDbTrace
 10
345.5
 20
117.55774711
 30
0.0
 11
345.5
 21
116.72441378
 31
0.0
 12
343.0
 22
117.14108045
 32
0.0
 13
343.0
 23
117.14108045
 33
0.0
  0
SOLID
  5
1381
100
AcDbEntity
  8
0
 62
       0
100
AcDbTrace
 10
376.5
 20
117.55774711
 30
0.0
 11
376.5
 21
116.72441378
 31
0.0
 12
379.0
 22
117.14108045
 32
0.0
 13
379.0
 23
117.14108045
 33
0.0
  0
MTEXT
  5
1382
100
AcDbEntity
  8
0
 62
       0
100
AcDbMText
 10
361.0
 20
120.26608045
 30
0.0
 40
5.0
 41
0.0
 71
       5
 72
       1
  1
36
1001
ACAD
1000
MTEXTBEGIN
1070
      73
1070
       1
1070
      44
1040
1.0
1070
      74
1070
       0
1000
MTEXTEND
1000
MTEXTBEGIN
1070
      73
1070
       1
1070
      44
1040
1.0
1070
      74
1070
       0
1000
MTEXTEND
  0
POINT
  5
1383
100
AcDbEntity
  8
DEFPOINTS
 62
       0
100
AcDbPoint
 10
343.0
 20
138.75
 30
0.0
  0
POINT
  5
1384
100
AcDbEntity
  8
DEFPOINTS
 62
       0
100
AcDbPoint
 10
379.0
 20
138.75
 30
0.0
  0
POINT
  5
1385
100
AcDbEntity
  8
DEFPOINTS
 62
       0
100
AcDbPoint
 10
379.0
 20
117.14108045
 30
0.0
  0
ENDBLK
  5
1285
100
AcDbEntity
  8
0
100
AcDbBlockEnd
  0
BLOCK
  5
12FF
100
AcDbEntity
  8
0
100
AcDbBlockBegin
  2
*D40
 70
      65
 10
0.0
 20
0.0
 30
0.0
  3
*D40
  1

  0
LINE
  5
1328
100
AcDbEntity
  8
0
 62
       0
100
AcDbLine
 10
410.625
 20
143.0
 30
0.0
 11
437.06953125
 21
143.0
 31
0.0
1001
ACAD
1000
RTLwPs
1070
     158
  0
LINE
  5
1329
100
AcDbEntity
  8
0
 62
       0
100
AcDbLine
 10
381.625
 20
110.0
 30
0.0
 11
437.06953125
 21
110.0
 31
0.0
1001
ACAD
1000
RTLwPs
1070
     158
  0
LINE
  5
132A
100
AcDbEntity
  8
0
 62
       0
100
AcDbLine
 10
435.81953125
 20
140.5
 30
0.0
 11
435.81953125
 21
112.5
 31
0.0
1001
ACAD
1000
RTLwPs
1070
     158
  0
SOLID
  5
132B
100
AcDbEntity
  8
0
 62
       0
100
AcDbTrace
 10
435.40286458
 20
140.5
 30
0.0
 11
436.23619792
 21
140.5
 31
0.0
 12
435.81953125
 22
143.0
 32
0.0
 13
435.81953125
 23
143.0
 33
0.0
  0
SOLID
  5
132C
100
AcDbEntity
  8
0
 62
       0
100
AcDbTrace
 10
435.40286458
 20
112.5
 30
0.0
 11
436.23619792
 21
112.5
 31
0.0
 12
435.81953125
 22
110.0
 32
0.0
 13
435.81953125
 23
110.0
 33
0.0
  0
MTEXT
  5
132D
100
AcDbEntity
  8
0
 62
       0
100
AcDbMText
 10
432.69453125
 20
126.5
 30
0.0
 40
5.0
 41
0.0
 71
       5
 72
       1
  1
33
 11
0.0
 21
1.0
 31
0.0
1001
ACAD
1000
MTEXTBEGIN
1070
      73
1070
       1
1070
      44
1040
1.0
1070
      74
1070
       0
1000
MTEXTEND
1000
MTEXTBEGIN
1070
      73
1070
       1
1070
      44
1040
1.0
1070
      74
1070
       0
1000
MTEXTEND
  0
POINT
  5
132E
100
AcDbEntity
  8
DEFPOINTS
 62
       0
100
AcDbPoint
 10
410.0
 20
143.0
 30
0.0
  0
POINT
  5
132F
100
AcDbEntity
  8
DEFPOINTS
 62
       0
100
AcDbPoint
 10
381.0
 20
110.0
 30
0.0
  0
POINT
  5
1330
100
AcDbEntity
  8
DEFPOINTS
 62
       0
100
AcDbPoint
 10
435.81953125
 20
110.0
 30
0.0
  0
ENDBLK
  5
1300
100
AcDbEntity
  8
0
100
AcDbBlockEnd
  0
BLOCK
  5
130C
100
AcDbEntity
  8
0
100
AcDbBlockBegin
  2
*D41
 70
      65
 10
0.0
 20
0.0
 30
0.0
  3
*D41
  1

  0
LINE
  5
1331
100
AcDbEntity
  8
0
 62
       0
100
AcDbLine
 10
410.625
 20
143.0
 30
0.0
 11
450.17493181
 21
143.0
 31
0.0
1001
ACAD
1000
RTLwPs
1070
     158
  0
LINE
  5
1332
100
AcDbEntity
  8
0
 62
       0
100
AcDbLine
 10
325.625
 20
88.5
 30
0.0
 11
450.17493181
 21
88.5
 31
0.0
1001
ACAD
1000
RTLwPs
1070
     158
  0
LINE
  5
1333
100
AcDbEntity
  8
0
 62
       0
100
AcDbLine
 10
448.92493181
 20
140.5
 30
0.0
 11
448.92493181
 21
91.0
 31
0.0
1001
ACAD
1000
RTLwPs
1070
     158
  0
SOLID
  5
1334
100
AcDbEntity
  8
0
 62
       0
100
AcDbTrace
 10
448.50826514
 20
140.5
 30
0.0
 11
449.34159847
 21
140.5
 31
0.0
 12
448.92493181
 22
143.0
 32
0.0
 13
448.92493181
 23
143.0
 33
0.0
  0
SOLID
  5
1335
100
AcDbEntity
  8
0
 62
       0
100
AcDbTrace
 10
448.50826514
 20
91.0
 30
0.0
 11
449.34159847
 21
91.0
 31
0.0
 12
448.92493181
 22
88.5
 32
0.0
 13
448.92493181
 23
88.5
 33
0.0
  0
MTEXT
  5
1336
100
AcDbEntity
  8
0
 62
       0
100
AcDbMText
 10
445.38326514
 20
115.75
 30
0.0
 40
5.0
 41
0.0
 71
       5
 72
       1
  1
54,5
 11
0.0
 21
1.0
 31
0.0
1001
ACAD
1000
MTEXTBEGIN
1070
      73
1070
       1
1070
      44
1040
1.0
1070
      74
1070
       0
1000
MTEXTEND
1000
MTEXTBEGIN
1070
      73
1070
       1
1070
      44
1040
1.0
1070
      74
1070
       0
1000
MTEXTEND
  0
POINT
  5
1337
100
AcDbEntity
  8
DEFPOINTS
 62
       0
100
AcDbPoint
 10
410.0
 20
143.0
 30
0.0
  0
POINT
  5
1338
100
AcDbEntity
  8
DEFPOINTS
 62
       0
100
AcDbPoint
 10
325.0
 20
88.5
 30
0.0
  0
POINT
  5
1339
100
AcDbEntity
  8
DEFPOINTS
 62
       0
100
AcDbPoint
 10
448.92493181
 20
88.5
 30
0.0
  0
ENDBLK
  5
130D
100
AcDbEntity
  8
0
100
AcDbBlockEnd
  0
BLOCK
  5
1319
100
AcDbEntity
  8
0
100
AcDbBlockBegin
  2
*D42
 70
      65
 10
0.0
 20
0.0
 30
0.0
  3
*D42
  1

  0
LINE
  5
133A
100
AcDbEntity
  8
0
 62
       0
100
AcDbLine
 10
410.625
 20
143.0
 30
0.0
 11
461.6821127
 21
143.0
 31
0.0
1001
ACAD
1000
RTLwPs
1070
     158
  0
LINE
  5
133B
100
AcDbEntity
  8
0
 62
       0
100
AcDbLine
 10
381.625
 20
57.0
 30
0.0
 11
461.6821127
 21
57.0
 31
0.0
1001
ACAD
1000
RTLwPs
1070
     158
  0
LINE
  5
133C
100
AcDbEntity
  8
0
 62
       0
100
AcDbLine
 10
460.4321127
 20
140.5
 30
0.0
 11
460.4321127
 21
59.5
 31
0.0
1001
ACAD
1000
RTLwPs
1070
     158
  0
SOLID
  5
133D
100
AcDbEntity
  8
0
 62
       0
100
AcDbTrace
 10
460.01544603
 20
140.5
 30
0.0
 11
460.84877937
 21
140.5
 31
0.0
 12
460.4321127
 22
143.0
 32
0.0
 13
460.4321127
 23
143.0
 33
0.0
  0
SOLID
  5
133E
100
AcDbEntity
  8
0
 62
       0
100
AcDbTrace
 10
460.01544603
 20
59.5
 30
0.0
 11
460.84877937
 21
59.5
 31
0.0
 12
460.4321127
 22
57.0
 32
0.0
 13
460.4321127
 23
57.0
 33
0.0
  0
MTEXT
  5
133F
100
AcDbEntity
  8
0
 62
       0
100
AcDbMText
 10
457.3071127
 20
100.0
 30
0.0
 40
5.0
 41
0.0
 71
       5
 72
       1
  1
86
 11
0.0
 21
1.0
 31
0.0
1001
ACAD
1000
MTEXTBEGIN
1070
      73
1070
       1
1070
      44
1040
1.0
1070
      74
1070
       0
1000
MTEXTEND
1000
MTEXTBEGIN
1070
      73
1070
       1
1070
      44
1040
1.0
1070
      74
1070
       0
1000
MTEXTEND
  0
POINT
  5
1340
100
AcDbEntity
  8
DEFPOINTS
 62
       0
100
AcDbPoint
 10
410.0
 20
143.0
 30
0.0
  0
POINT
  5
1341
100
AcDbEntity
  8
DEFPOINTS
 62
       0
100
AcDbPoint
 10
381.0
 20
57.0
 30
0.0
  0
POINT
  5
1342
100
AcDbEntity
  8
DEFPOINTS
 62
       0
100
AcDbPoint
 10
460.4321127
 20
57.0
 30
0.0
  0
ENDBLK
  5
131A
100
AcDbEntity
  8
0
100
AcDbBlockEnd
  0
BLOCK
  5
1326
100
AcDbEntity
  8
0
100
AcDbBlockBegin
  2
*D43
 70
      65
 10
0.0
 20
0.0
 30
0.0
  3
*D43
  1

  0
LINE
  5
1343
100
AcDbEntity
  8
0
 62
       0
100
AcDbLine
 10
410.625
 20
143.0
 30
0.0
 11
472.55000712
 21
143.0
 31
0.0
1001
ACAD
1000
RTLwPs
1070
     158
  0
LINE
  5
1344
100
AcDbEntity
  8
0
 62
       0
100
AcDbLine
 10
360.625
 20
51.0
 30
0.0
 11
472.55000712
 21
51.0
 31
0.0
1001
ACAD
1000
RTLwPs
1070
     158
  0
LINE
  5
1345
100
AcDbEntity
  8
0
 62
       0
100
AcDbLine
 10
471.30000712
 20
140.5
 30
0.0
 11
471.30000712
 21
53.5
 31
0.0
1001
ACAD
1000
RTLwPs
1070
     158
  0
SOLID
  5
1346
100
AcDbEntity
  8
0
 62
       0
100
AcDbTrace
 10
470.88334045
 20
140.5
 30
0.0
 11
471.71667379
 21
140.5
 31
0.0
 12
471.30000712
 22
143.0
 32
0.0
 13
471.30000712
 23
143.0
 33
0.0
  0
SOLID
  5
1347
100
AcDbEntity
  8
0
 62
       0
100
AcDbTrace
 10
470.88334045
 20
53.5
 30
0.0
 11
471.71667379
 21
53.5
 31
0.0
 12
471.30000712
 22
51.0
 32
0.0
 13
471.30000712
 23
51.0
 33
0.0
  0
MTEXT
  5
1348
100
AcDbEntity
  8
0
 62
       0
100
AcDbMText
 10
468.17500712
 20
97.0
 30
0.0
 40
5.0
 41
0.0
 71
       5
 72
       1
  1
92
 11
0.0
 21
1.0
 31
0.0
1001
ACAD
1000
MTEXTBEGIN
1070
      73
1070
       1
1070
      44
1040
1.0
1070
      74
1070
       0
1000
MTEXTEND
1000
MTEXTBEGIN
1070
      73
1070
       1
1070
      44
1040
1.0
1070
      74
1070
       0
1000
MTEXTEND
  0
POINT
  5
1349
100
AcDbEntity
  8
DEFPOINTS
 62
       0
100
AcDbPoint
 10
410.0
 20
143.0
 30
0.0
  0
POINT
  5
134A
100
AcDbEntity
  8
DEFPOINTS
 62
       0
100
AcDbPoint
 10
360.0
 20
51.0
 30
0.0
  0
POINT
  5
134B
100
AcDbEntity
  8
DEFPOINTS
 62
       0
100
AcDbPoint
 10
471.30000712
 20
51.0
 30
0.0
  0
ENDBLK
  5
1327
100
AcDbEntity
  8
0
100
AcDbBlockEnd
  0
BLOCK
  5
139A
100
AcDbEntity
  8
0
100
AcDbBlockBegin
  2
*D44
 70
      65
 10
0.0
 20
0.0
 30
0.0
  3
*D44
  1

  0
LINE
  5
14A6
100
AcDbEntity
  8
0
 62
       0
100
AcDbLine
 10
181.295
 20
190.0
 30
0.0
 11
173.7297349
 21
190.0
 31
0.0
1001
ACAD
1000
RTLwPs
1070
     158
  0
LINE
  5
14A7
100
AcDbEntity
  8
0
 62
       0
100
AcDbLine
 10
176.11198719
 20
286.0
 30
0.0
 11
173.7297349
 21
286.0
 31
0.0
1001
ACAD
1000
RTLwPs
1070
     158
  0
LINE
  5
14A8
100
AcDbEntity
  8
0
 62
       0
100
AcDbLine
 10
174.9797349
 20
192.5
 30
0.0
 11
174.9797349
 21
283.5
 31
0.0
1001
ACAD
1000
RTLwPs
1070
     158
  0
SOLID
  5
14A9
100
AcDbEntity
  8
0
 62
       0
100
AcDbTrace
 10
174.56306823
 20
192.5
 30
0.0
 11
175.39640156
 21
192.5
 31
0.0
 12
174.9797349
 22
190.0
 32
0.0
 13
174.9797349
 23
190.0
 33
0.0
  0
SOLID
  5
14AA
100
AcDbEntity
  8
0
 62
       0
100
AcDbTrace
 10
174.56306823
 20
283.5
 30
0.0
 11
175.39640156
 21
283.5
 31
0.0
 12
174.9797349
 22
286.0
 32
0.0
 13
174.9797349
 23
286.0
 33
0.0
  0
MTEXT
  5
14AB
100
AcDbEntity
  8
0
 62
       0
100
AcDbMText
 10
171.8547349
 20
238.0
 30
0.0
 40
5.0
 41
0.0
 71
       5
 72
       1
  1
96
 11
0.0
 21
1.0
 31
0.0
1001
ACAD
1000
MTEXTBEGIN
1070
      73
1070
       1
1070
      44
1040
1.0
1070
      74
1070
       0
1000
MTEXTEND
1000
MTEXTBEGIN
1070
      73
1070
       1
1070
      44
1040
1.0
1070
      74
1070
       0
1000
MTEXTEND
  0
POINT
  5
14AC
100
AcDbEntity
  8
DEFPOINTS
 62
       0
100
AcDbPoint
 10
181.92
 20
190.0
 30
0.0
  0
POINT
  5
14AD
100
AcDbEntity
  8
DEFPOINTS
 62
       0
100
AcDbPoint
 10
176.73698719
 20
286.0
 30
0.0
  0
POINT
  5
14AE
100
AcDbEntity
  8
DEFPOINTS
 62
       0
100
AcDbPoint
 10
174.9797349
 20
286.0
 30
0.0
  0
ENDBLK
  5
139B
100
AcDbEntity
  8
0
100
AcDbBlockEnd
  0
BLOCK
  5
13A7
100
AcDbEntity
  8
0
100
AcDbBlockBegin
  2
*D45
 70
      65
 10
0.0
 20
0.0
 30
0.0
  3
*D45
  1

  0
LINE
  5
139E
100
AcDbEntity
  8
0
 62
       0
100
AcDbLine
 10
180.67
 20
190.0
 30
0.0
 11
173.7297349
 21
190.0
 31
0.0
1001
ACAD
1000
RTLwPs
1070
     158
  0
LINE
  5
139F
100
AcDbEntity
  8
0
 62
       0
100
AcDbLine
 10
180.67
 20
157.0
 30
0.0
 11
173.7297349
 21
157.0
 31
0.0
1001
ACAD
1000
RTLwPs
1070
     158
  0
LINE
  5
13A0
100
AcDbEntity
  8
0
 62
       0
100
AcDbLine
 10
174.9797349
 20
187.5
 30
0.0
 11
174.9797349
 21
159.5
 31
0.0
1001
ACAD
1000
RTLwPs
1070
     158
  0
SOLID
  5
13A1
100
AcDbEntity
  8
0
 62
       0
100
AcDbTrace
 10
174.56306823
 20
187.5
 30
0.0
 11
175.39640156
 21
187.5
 31
0.0
 12
174.9797349
 22
190.0
 32
0.0
 13
174.9797349
 23
190.0
 33
0.0
  0
SOLID
  5
13A2
100
AcDbEntity
  8
0
 62
       0
100
AcDbTrace
 10
174.56306823
 20
159.5
 30
0.0
 11
175.39640156
 21
159.5
 31
0.0
 12
174.9797349
 22
157.0
 32
0.0
 13
174.9797349
 23
157.0
 33
0.0
  0
MTEXT
  5
13A3
100
AcDbEntity
  8
0
 62
       0
100
AcDbMText
 10
171.8547349
 20
173.5
 30
0.0
 40
5.0
 41
0.0
 71
       5
 72
       1
  1
33
 11
0.0
 21
1.0
 31
0.0
1001
ACAD
1000
MTEXTBEGIN
1070
      73
1070
       1
1070
      44
1040
1.0
1070
      74
1070
       0
1000
MTEXTEND
1000
MTEXTBEGIN
1070
      73
1070
       1
1070
      44
1040
1.0
1070
      74
1070
       0
1000
MTEXTEND
  0
POINT
  5
13A4
100
AcDbEntity
  8
DEFPOINTS
 62
       0
100
AcDbPoint
 10
181.295
 20
190.0
 30
0.0
  0
POINT
  5
13A5
100
AcDbEntity
  8
DEFPOINTS
 62
       0
100
AcDbPoint
 10
181.295
 20
157.0
 30
0.0
  0
POINT
  5
13A6
100
AcDbEntity
  8
DEFPOINTS
 62
       0
100
AcDbPoint
 10
174.9797349
 20
157.0
 30
0.0
  0
ENDBLK
  5
13A8
100
AcDbEntity
  8
0
100
AcDbBlockEnd
  0
BLOCK
  5
13B4
100
AcDbEntity
  8
0
100
AcDbBlockBegin
  2
*D46
 70
      65
 10
0.0
 20
0.0
 30
0.0
  3
*D46
  1

  0
LINE
  5
13B6
100
AcDbEntity
  8
0
 62
       0
100
AcDbLine
 10
180.045
 20
157.0
 30
0.0
 11
173.7297349
 21
157.0
 31
0.0
1001
ACAD
1000
RTLwPs
1070
     158
  0
LINE
  5
13B7
100
AcDbEntity
  8
0
 62
       0
100
AcDbLine
 10
180.045
 20
129.0
 30
0.0
 11
173.7297349
 21
129.0
 31
0.0
1001
ACAD
1000
RTLwPs
1070
     158
  0
LINE
  5
13B8
100
AcDbEntity
  8
0
 62
       0
100
AcDbLine
 10
174.9797349
 20
154.5
 30
0.0
 11
174.9797349
 21
131.5
 31
0.0
1001
ACAD
1000
RTLwPs
1070
     158
  0
SOLID
  5
13B9
100
AcDbEntity
  8
0
 62
       0
100
AcDbTrace
 10
174.56306823
 20
154.5
 30
0.0
 11
175.39640156
 21
154.5
 31
0.0
 12
174.9797349
 22
157.0
 32
0.0
 13
174.9797349
 23
157.0
 33
0.0
  0
SOLID
  5
13BA
100
AcDbEntity
  8
0
 62
       0
100
AcDbTrace
 10
174.56306823
 20
131.5
 30
0.0
 11
175.39640156
 21
131.5
 31
0.0
 12
174.9797349
 22
129.0
 32
0.0
 13
174.9797349
 23
129.0
 33
0.0
  0
MTEXT
  5
13BB
100
AcDbEntity
  8
0
 62
       0
100
AcDbMText
 10
171.8547349
 20
143.0
 30
0.0
 40
5.0
 41
0.0
 71
       5
 72
       1
  1
28
 11
0.0
 21
1.0
 31
0.0
1001
ACAD
1000
MTEXTBEGIN
1070
      73
1070
       1
1070
      44
1040
1.0
1070
      74
1070
       0
1000
MTEXTEND
1000
MTEXTBEGIN
1070
      73
1070
       1
1070
      44
1040
1.0
1070
      74
1070
       0
1000
MTEXTEND
  0
POINT
  5
13BC
100
AcDbEntity
  8
DEFPOINTS
 62
       0
100
AcDbPoint
 10
180.67
 20
157.0
 30
0.0
  0
POINT
  5
13BD
100
AcDbEntity
  8
DEFPOINTS
 62
       0
100
AcDbPoint
 10
180.67
 20
129.0
 30
0.0
  0
POINT
  5
13BE
100
AcDbEntity
  8
DEFPOINTS
 62
       0
100
AcDbPoint
 10
174.9797349
 20
129.0
 30
0.0
  0
ENDBLK
  5
13B5
100
AcDbEntity
  8
0
100
AcDbBlockEnd
  0
BLOCK
  5
13CA
100
AcDbEntity
  8
0
100
AcDbBlockBegin
  2
*D47
 70
      65
 10
0.0
 20
0.0
 30
0.0
  3
*D47
  1

  0
LINE
  5
13F0
100
AcDbEntity
  8
0
 62
       0
100
AcDbLine
 10
179.42
 20
129.0
 30
0.0
 11
173.7297349
 21
129.0
 31
0.0
1001
ACAD
1000
RTLwPs
1070
     158
  0
LINE
  5
13F1
100
AcDbEntity
  8
0
 62
       0
100
AcDbLine
 10
179.42
 20
96.0
 30
0.0
 11
173.7297349
 21
96.0
 31
0.0
1001
ACAD
1000
RTLwPs
1070
     158
  0
LINE
  5
13F2
100
AcDbEntity
  8
0
 62
       0
100
AcDbLine
 10
174.9797349
 20
126.5
 30
0.0
 11
174.9797349
 21
98.5
 31
0.0
1001
ACAD
1000
RTLwPs
1070
     158
  0
SOLID
  5
13F3
100
AcDbEntity
  8
0
 62
       0
100
AcDbTrace
 10
174.56306823
 20
126.5
 30
0.0
 11
175.39640156
 21
126.5
 31
0.0
 12
174.9797349
 22
129.0
 32
0.0
 13
174.9797349
 23
129.0
 33
0.0
  0
SOLID
  5
13F4
100
AcDbEntity
  8
0
 62
       0
100
AcDbTrace
 10
174.56306823
 20
98.5
 30
0.0
 11
175.39640156
 21
98.5
 31
0.0
 12
174.9797349
 22
96.0
 32
0.0
 13
174.9797349
 23
96.0
 33
0.0
  0
MTEXT
  5
13F5
100
AcDbEntity
  8
0
 62
       0
100
AcDbMText
 10
171.8547349
 20
112.5
 30
0.0
 40
5.0
 41
0.0
 71
       5
 72
       1
  1
33
 11
0.0
 21
1.0
 31
0.0
1001
ACAD
1000
MTEXTBEGIN
1070
      73
1070
       1
1070
      44
1040
1.0
1070
      74
1070
       0
1000
MTEXTEND
1000
MTEXTBEGIN
1070
      73
1070
       1
1070
      44
1040
1.0
1070
      74
1070
       0
1000
MTEXTEND
  0
POINT
  5
13F6
100
AcDbEntity
  8
DEFPOINTS
 62
       0
100
AcDbPoint
 10
180.045
 20
129.0
 30
0.0
  0
POINT
  5
13F7
100
AcDbEntity
  8
DEFPOINTS
 62
       0
100
AcDbPoint
 10
180.045
 20
96.0
 30
0.0
  0
POINT
  5
13F8
100
AcDbEntity
  8
DEFPOINTS
 62
       0
100
AcDbPoint
 10
174.9797349
 20
96.0
 30
0.0
  0
ENDBLK
  5
13CB
100
AcDbEntity
  8
0
100
AcDbBlockEnd
  0
BLOCK
  5
13D7
100
AcDbEntity
  8
0
100
AcDbBlockBegin
  2
*D48
 70
      65
 10
0.0
 20
0.0
 30
0.0
  3
*D48
  1

  0
LINE
  5
1468
100
AcDbEntity
  8
0
 62
       0
100
AcDbLine
 10
181.29537442
 20
-0.0856734
 30
0.0
 11
173.7297349
 21
-0.0856734
 31
0.0
1001
ACAD
1000
RTLwPs
1070
     158
  0
LINE
  5
1469
100
AcDbEntity
  8
0
 62
       0
100
AcDbLine
 10
181.29537442
 20
96.0
 30
0.0
 11
173.7297349
 21
96.0
 31
0.0
1001
ACAD
1000
RTLwPs
1070
     158
  0
LINE
  5
146A
100
AcDbEntity
  8
0
 62
       0
100
AcDbLine
 10
174.9797349
 20
2.4143266
 30
0.0
 11
174.9797349
 21
93.5
 31
0.0
1001
ACAD
1000
RTLwPs
1070
     158
  0
SOLID
  5
146B
100
AcDbEntity
  8
0
 62
       0
100
AcDbTrace
 10
174.56306823
 20
2.4143266
 30
0.0
 11
175.39640156
 21
2.4143266
 31
0.0
 12
174.9797349
 22
-0.0856734
 32
0.0
 13
174.9797349
 23
-0.0856734
 33
0.0
  0
SOLID
  5
146C
100
AcDbEntity
  8
0
 62
       0
100
AcDbTrace
 10
174.56306823
 20
93.5
 30
0.0
 11
175.39640156
 21
93.5
 31
0.0
 12
174.9797349
 22
96.0
 32
0.0
 13
174.9797349
 23
96.0
 33
0.0
  0
MTEXT
  5
146D
100
AcDbEntity
  8
0
 62
       0
100
AcDbMText
 10
171.8547349
 20
47.9571633
 30
0.0
 40
5.0
 41
0.0
 71
       5
 72
       1
  1
96
 11
0.0
 21
1.0
 31
0.0
1001
ACAD
1000
MTEXTBEGIN
1070
      73
1070
       1
1070
      44
1040
1.0
1070
      74
1070
       0
1000
MTEXTEND
1000
MTEXTBEGIN
1070
      73
1070
       1
1070
      44
1040
1.0
1070
      74
1070
       0
1000
MTEXTEND
  0
POINT
  5
146E
100
AcDbEntity
  8
DEFPOINTS
 62
       0
100
AcDbPoint
 10
181.92037442
 20
-0.0856734
 30
0.0
  0
POINT
  5
146F
100
AcDbEntity
  8
DEFPOINTS
 62
       0
100
AcDbPoint
 10
181.92037442
 20
96.0
 30
0.0
  0
POINT
  5
1470
100
AcDbEntity
  8
DEFPOINTS
 62
       0
100
AcDbPoint
 10
174.9797349
 20
96.0
 30
0.0
  0
ENDBLK
  5
13D8
100
AcDbEntity
  8
0
100
AcDbBlockEnd
  0
BLOCK
  5
1414
100
AcDbEntity
  8
0
100
AcDbBlockBegin
  2
*D49
 70
      65
 10
0.0
 20
0.0
 30
0.0
  3
*D49
  1

  0
LINE
  5
1AC3
100
AcDbEntity
  8
0
 62
       0
100
AcDbLine
 10
327.36764069
 20
197.5
 30
0.0
 11
358.67502661
 21
197.5
 31
0.0
  0
ARC
  5
1AC4
100
AcDbEntity
  8
0
 62
       0
100
AcDbCircle
 10
326.74264069
 20
197.5
 30
0.0
 40
30.68238592
100
AcDbArc
 50
4.66975099
 51
40.33024901
  0
SOLID
  5
1AC5
100
AcDbEntity
  8
0
 62
       0
100
AcDbTrace
 10
357.73949738
 20
200.01489945
 30
0.0
 11
356.9068559
 21
199.98094946
 31
0.0
 12
357.42502661
 22
197.5
 32
0.0
 13
357.42502661
 23
197.5
 33
0.0
  0
SOLID
  5
1AC6
100
AcDbEntity
  8
0
 62
       0
100
AcDbTrace
 10
349.826258
 20
217.07502494
 30
0.0
 11
350.43903071
 21
217.63978511
 31
0.0
 12
348.43836383
 22
219.19572315
 32
0.0
 13
348.43836383
 23
219.19572315
 33
0.0
  0
MTEXT
  5
1AC7
100
AcDbEntity
  8
0
 62
       0
100
AcDbMText
 10
357.97659259
 20
210.43752648
 30
0.0
 40
5.0
 41
0.0
 71
       5
 72
       1
  1
45°
 11
0.38268343
 21
-0.92387953
 31
0.0
  0
POINT
  5
1AC8
100
AcDbEntity
  8
DEFPOINTS
 62
       0
100
AcDbPoint
 10
356.37954966
 20
205.44118583
 30
0.0
  0
POINT
  5
1AC9
100
AcDbEntity
  8
DEFPOINTS
 62
       0
100
AcDbPoint
 10
320.0
 20
197.5
 30
0.0
  0
POINT
  5
1ACA
100
AcDbEntity
  8
DEFPOINTS
 62
       0
100
AcDbPoint
 10
362.12132034
 20
232.87867966
 30
0.0
  0
POINT
  5
1ACB
100
AcDbEntity
  8
DEFPOINTS
 62
       0
100
AcDbPoint
 10
324.62132034
 20
195.37867966
 30
0.0
  0
POINT
  5
1ACC
100
AcDbEntity
  8
DEFPOINTS
 62
       0
100
AcDbPoint
 10
325.0
 20
197.5
 30
0.0
  0
ENDBLK
  5
1415
100
AcDbEntity
  8
0
100
AcDbBlockEnd
  0
BLOCK
  5
14F9
100
AcDbEntity
  8
0
100
AcDbBlockBegin
  2
*D50
 70
      65
 10
0.0
 20
0.0
 30
0.0
  3
*D50
  1

  0
LINE
  5
15D3
100
AcDbEntity
  8
0
 62
       0
100
AcDbLine
 10
0.0
 20
228.47223627
 30
0.0
 11
0.0
 21
312.05309023
 31
0.0
1001
ACAD
1000
RTLwPs
1070
     158
  0
LINE
  5
15D4
100
AcDbEntity
  8
0
 62
       0
100
AcDbLine
 10
40.0
 20
273.625
 30
0.0
 11
40.0
 21
312.05309023
 31
0.0
1001
ACAD
1000
RTLwPs
1070
     158
  0
LINE
  5
15D5
100
AcDbEntity
  8
0
 62
       0
100
AcDbLine
 10
2.5
 20
310.80309023
 30
0.0
 11
37.5
 21
310.80309023
 31
0.0
1001
ACAD
1000
RTLwPs
1070
     158
  0
SOLID
  5
15D6
100
AcDbEntity
  8
0
 62
       0
100
AcDbTrace
 10
2.5
 20
311.2197569
 30
0.0
 11
2.5
 21
310.38642356
 31
0.0
 12
0.0
 22
310.80309023
 32
0.0
 13
0.0
 23
310.80309023
 33
0.0
  0
SOLID
  5
15D7
100
AcDbEntity
  8
0
 62
       0
100
AcDbTrace
 10
37.5
 20
311.2197569
 30
0.0
 11
37.5
 21
310.38642356
 31
0.0
 12
40.0
 22
310.80309023
 32
0.0
 13
40.0
 23
310.80309023
 33
0.0
  0
MTEXT
  5
15D8
100
AcDbEntity
  8
0
 62
       0
100
AcDbMText
 10
20.0
 20
313.92809023
 30
0.0
 40
5.0
 41
0.0
 71
       5
 72
       1
  1
40
1001
ACAD
1000
MTEXTBEGIN
1070
      73
1070
       1
1070
      44
1040
1.0
1070
      74
1070
       0
1000
MTEXTEND
1000
MTEXTBEGIN
1070
      73
1070
       1
1070
      44
1040
1.0
1070
      74
1070
       0
1000
MTEXTEND
  0
POINT
  5
15D9
100
AcDbEntity
  8
DEFPOINTS
 62
       0
100
AcDbPoint
 10
0.0
 20
227.84723627
 30
0.0
  0
POINT
  5
15DA
100
AcDbEntity
  8
DEFPOINTS
 62
       0
100
AcDbPoint
 10
40.0
 20
273.0
 30
0.0
  0
POINT
  5
15DB
100
AcDbEntity
  8
DEFPOINTS
 62
       0
100
AcDbPoint
 10
40.0
 20
310.80309023
 30
0.0
  0
ENDBLK
  5
14FA
100
AcDbEntity
  8
0
100
AcDbBlockEnd
  0
BLOCK
  5
1506
100
AcDbEntity
  8
0
100
AcDbBlockBegin
  2
*D51
 70
      65
 10
0.0
 20
0.0
 30
0.0
  3
*D51
  1

  0
LINE
  5
15CA
100
AcDbEntity
  8
0
 62
       0
100
AcDbLine
 10
0.0
 20
228.47223627
 30
0.0
 11
0.0
 21
321.32510647
 31
0.0
1001
ACAD
1000
RTLwPs
1070
     158
  0
LINE
  5
15CB
100
AcDbEntity
  8
0
 62
       0
100
AcDbLine
 10
77.0
 20
273.625
 30
0.0
 11
77.0
 21
321.32510647
 31
0.0
1001
ACAD
1000
RTLwPs
1070
     158
  0
LINE
  5
15CC
100
AcDbEntity
  8
0
 62
       0
100
AcDbLine
 10
2.5
 20
320.07510647
 30
0.0
 11
74.5
 21
320.07510647
 31
0.0
1001
ACAD
1000
RTLwPs
1070
     158
  0
SOLID
  5
15CD
100
AcDbEntity
  8
0
 62
       0
100
AcDbTrace
 10
2.5
 20
320.49177314
 30
0.0
 11
2.5
 21
319.65843981
 31
0.0
 12
0.0
 22
320.07510647
 32
0.0
 13
0.0
 23
320.07510647
 33
0.0
  0
SOLID
  5
15CE
100
AcDbEntity
  8
0
 62
       0
100
AcDbTrace
 10
74.5
 20
320.49177314
 30
0.0
 11
74.5
 21
319.65843981
 31
0.0
 12
77.0
 22
320.07510647
 32
0.0
 13
77.0
 23
320.07510647
 33
0.0
  0
MTEXT
  5
15CF
100
AcDbEntity
  8
0
 62
       0
100
AcDbMText
 10
38.5
 20
323.20010647
 30
0.0
 40
5.0
 41
0.0
 71
       5
 72
       1
  1
77
1001
ACAD
1000
MTEXTBEGIN
1070
      73
1070
       1
1070
      44
1040
1.0
1070
      74
1070
       0
1000
MTEXTEND
1000
MTEXTBEGIN
1070
      73
1070
       1
1070
      44
1040
1.0
1070
      74
1070
       0
1000
MTEXTEND
  0
POINT
  5
15D0
100
AcDbEntity
  8
DEFPOINTS
 62
       0
100
AcDbPoint
 10
0.0
 20
227.84723627
 30
0.0
  0
POINT
  5
15D1
100
AcDbEntity
  8
DEFPOINTS
 62
       0
100
AcDbPoint
 10
77.0
 20
273.0
 30
0.0
  0
POINT
  5
15D2
100
AcDbEntity
  8
DEFPOINTS
 62
       0
100
AcDbPoint
 10
77.0
 20
320.07510647
 30
0.0
  0
ENDBLK
  5
1507
100
AcDbEntity
  8
0
100
AcDbBlockEnd
  0
BLOCK
  5
1513
100
AcDbEntity
  8
0
100
AcDbBlockBegin
  2
*D52
 70
      65
 10
0.0
 20
0.0
 30
0.0
  3
*D52
  1

  0
LINE
  5
15C1
100
AcDbEntity
  8
0
 62
       0
100
AcDbLine
 10
0.0
 20
228.47223627
 30
0.0
 11
0.0
 21
330.34652783
 31
0.0
1001
ACAD
1000
RTLwPs
1070
     158
  0
LINE
  5
15C2
100
AcDbEntity
  8
0
 62
       0
100
AcDbLine
 10
114.0
 20
273.625
 30
0.0
 11
114.0
 21
330.34652783
 31
0.0
1001
ACAD
1000
RTLwPs
1070
     158
  0
LINE
  5
15C3
100
AcDbEntity
  8
0
 62
       0
100
AcDbLine
 10
2.5
 20
329.09652783
 30
0.0
 11
111.5
 21
329.09652783
 31
0.0
1001
ACAD
1000
RTLwPs
1070
     158
  0
SOLID
  5
15C4
100
AcDbEntity
  8
0
 62
       0
100
AcDbTrace
 10
2.5
 20
329.5131945
 30
0.0
 11
2.5
 21
328.67986117
 31
0.0
 12
0.0
 22
329.09652783
 32
0.0
 13
0.0
 23
329.09652783
 33
0.0
  0
SOLID
  5
15C5
100
AcDbEntity
  8
0
 62
       0
100
AcDbTrace
 10
111.5
 20
329.5131945
 30
0.0
 11
111.5
 21
328.67986117
 31
0.0
 12
114.0
 22
329.09652783
 32
0.0
 13
114.0
 23
329.09652783
 33
0.0
  0
MTEXT
  5
15C6
100
AcDbEntity
  8
0
 62
       0
100
AcDbMText
 10
57.0
 20
332.22152783
 30
0.0
 40
5.0
 41
0.0
 71
       5
 72
       1
  1
114
1001
ACAD
1000
MTEXTBEGIN
1070
      73
1070
       1
1070
      44
1040
1.0
1070
      74
1070
       0
1000
MTEXTEND
1000
MTEXTBEGIN
1070
      73
1070
       1
1070
      44
1040
1.0
1070
      74
1070
       0
1000
MTEXTEND
  0
POINT
  5
15C7
100
AcDbEntity
  8
DEFPOINTS
 62
       0
100
AcDbPoint
 10
0.0
 20
227.84723627
 30
0.0
  0
POINT
  5
15C8
100
AcDbEntity
  8
DEFPOINTS
 62
       0
100
AcDbPoint
 10
114.0
 20
273.0
 30
0.0
  0
POINT
  5
15C9
100
AcDbEntity
  8
DEFPOINTS
 62
       0
100
AcDbPoint
 10
114.0
 20
329.09652783
 30
0.0
  0
ENDBLK
  5
1514
100
AcDbEntity
  8
0
100
AcDbBlockEnd
  0
BLOCK
  5
1520
100
AcDbEntity
  8
0
100
AcDbBlockBegin
  2
*D53
 70
      65
 10
0.0
 20
0.0
 30
0.0
  3
*D53
  1

  0
LINE
  5
15AF
100
AcDbEntity
  8
0
 62
       0
100
AcDbLine
 10
0.0
 20
228.47223627
 30
0.0
 11
0.0
 21
339.54320672
 31
0.0
1001
ACAD
1000
RTLwPs
1070
     158
  0
LINE
  5
15B0
100
AcDbEntity
  8
0
 62
       0
100
AcDbLine
 10
151.0
 20
273.625
 30
0.0
 11
151.0
 21
339.54320672
 31
0.0
1001
ACAD
1000
RTLwPs
1070
     158
  0
LINE
  5
15B1
100
AcDbEntity
  8
0
 62
       0
100
AcDbLine
 10
2.5
 20
338.29320672
 30
0.0
 11
148.5
 21
338.29320672
 31
0.0
1001
ACAD
1000
RTLwPs
1070
     158
  0
SOLID
  5
15B2
100
AcDbEntity
  8
0
 62
       0
100
AcDbTrace
 10
2.5
 20
338.70987339
 30
0.0
 11
2.5
 21
337.87654006
 31
0.0
 12
0.0
 22
338.29320672
 32
0.0
 13
0.0
 23
338.29320672
 33
0.0
  0
SOLID
  5
15B3
100
AcDbEntity
  8
0
 62
       0
100
AcDbTrace
 10
148.5
 20
338.70987339
 30
0.0
 11
148.5
 21
337.87654006
 31
0.0
 12
151.0
 22
338.29320672
 32
0.0
 13
151.0
 23
338.29320672
 33
0.0
  0
MTEXT
  5
15B4
100
AcDbEntity
  8
0
 62
       0
100
AcDbMText
 10
75.5
 20
341.41820672
 30
0.0
 40
5.0
 41
0.0
 71
       5
 72
       1
  1
151
1001
ACAD
1000
MTEXTBEGIN
1070
      73
1070
       1
1070
      44
1040
1.0
1070
      74
1070
       0
1000
MTEXTEND
1000
MTEXTBEGIN
1070
      73
1070
       1
1070
      44
1040
1.0
1070
      74
1070
       0
1000
MTEXTEND
  0
POINT
  5
15B5
100
AcDbEntity
  8
DEFPOINTS
 62
       0
100
AcDbPoint
 10
0.0
 20
227.84723627
 30
0.0
  0
POINT
  5
15B6
100
AcDbEntity
  8
DEFPOINTS
 62
       0
100
AcDbPoint
 10
151.0
 20
273.0
 30
0.0
  0
POINT
  5
15B7
100
AcDbEntity
  8
DEFPOINTS
 62
       0
100
AcDbPoint
 10
151.0
 20
338.29320672
 30
0.0
  0
ENDBLK
  5
1521
100
AcDbEntity
  8
0
100
AcDbBlockEnd
  0
BLOCK
  5
152D
100
AcDbEntity
  8
0
100
AcDbBlockBegin
  2
*D54
 70
      65
 10
0.0
 20
0.0
 30
0.0
  3
*D54
  1

  0
LINE
  5
15A6
100
AcDbEntity
  8
0
 62
       0
100
AcDbLine
 10
0.0
 20
228.47223627
 30
0.0
 11
0.0
 21
348.56462808
 31
0.0
1001
ACAD
1000
RTLwPs
1070
     158
  0
LINE
  5
15A7
100
AcDbEntity
  8
0
 62
       0
100
AcDbLine
 10
188.0
 20
272.75155224
 30
0.0
 11
188.0
 21
348.56462808
 31
0.0
1001
ACAD
1000
RTLwPs
1070
     158
  0
LINE
  5
15A8
100
AcDbEntity
  8
0
 62
       0
100
AcDbLine
 10
2.5
 20
347.31462808
 30
0.0
 11
185.5
 21
347.31462808
 31
0.0
1001
ACAD
1000
RTLwPs
1070
     158
  0
SOLID
  5
15A9
100
AcDbEntity
  8
0
 62
       0
100
AcDbTrace
 10
2.5
 20
347.73129475
 30
0.0
 11
2.5
 21
346.89796142
 31
0.0
 12
0.0
 22
347.31462808
 32
0.0
 13
0.0
 23
347.31462808
 33
0.0
  0
SOLID
  5
15AA
100
AcDbEntity
  8
0
 62
       0
100
AcDbTrace
 10
185.5
 20
347.73129475
 30
0.0
 11
185.5
 21
346.89796142
 31
0.0
 12
188.0
 22
347.31462808
 32
0.0
 13
188.0
 23
347.31462808
 33
0.0
  0
MTEXT
  5
15AB
100
AcDbEntity
  8
0
 62
       0
100
AcDbMText
 10
94.0
 20
350.43962808
 30
0.0
 40
5.0
 41
0.0
 71
       5
 72
       1
  1
188
1001
ACAD
1000
MTEXTBEGIN
1070
      73
1070
       1
1070
      44
1040
1.0
1070
      74
1070
       0
1000
MTEXTEND
1000
MTEXTBEGIN
1070
      73
1070
       1
1070
      44
1040
1.0
1070
      74
1070
       0
1000
MTEXTEND
  0
POINT
  5
15AC
100
AcDbEntity
  8
DEFPOINTS
 62
       0
100
AcDbPoint
 10
0.0
 20
227.84723627
 30
0.0
  0
POINT
  5
15AD
100
AcDbEntity
  8
DEFPOINTS
 62
       0
100
AcDbPoint
 10
188.0
 20
272.12655224
 30
0.0
  0
POINT
  5
15AE
100
AcDbEntity
  8
DEFPOINTS
 62
       0
100
AcDbPoint
 10
188.0
 20
347.31462808
 30
0.0
  0
ENDBLK
  5
152E
100
AcDbEntity
  8
0
100
AcDbBlockEnd
  0
BLOCK
  5
153A
100
AcDbEntity
  8
0
100
AcDbBlockBegin
  2
*D55
 70
      65
 10
0.0
 20
0.0
 30
0.0
  3
*D55
  1

  0
LINE
  5
159D
100
AcDbEntity
  8
0
 62
       0
100
AcDbLine
 10
0.0
 20
228.47223627
 30
0.0
 11
0.0
 21
358.58843009
 31
0.0
1001
ACAD
1000
RTLwPs
1070
     158
  0
LINE
  5
159E
100
AcDbEntity
  8
0
 62
       0
100
AcDbLine
 10
225.0
 20
267.65830455
 30
0.0
 11
225.0
 21
358.58843009
 31
0.0
1001
ACAD
1000
RTLwPs
1070
     158
  0
LINE
  5
159F
100
AcDbEntity
  8
0
 62
       0
100
AcDbLine
 10
2.5
 20
357.33843009
 30
0.0
 11
222.5
 21
357.33843009
 31
0.0
1001
ACAD
1000
RTLwPs
1070
     158
  0
SOLID
  5
15A0
100
AcDbEntity
  8
0
 62
       0
100
AcDbTrace
 10
2.5
 20
357.75509675
 30
0.0
 11
2.5
 21
356.92176342
 31
0.0
 12
0.0
 22
357.33843009
 32
0.0
 13
0.0
 23
357.33843009
 33
0.0
  0
SOLID
  5
15A1
100
AcDbEntity
  8
0
 62
       0
100
AcDbTrace
 10
222.5
 20
357.75509675
 30
0.0
 11
222.5
 21
356.92176342
 31
0.0
 12
225.0
 22
357.33843009
 32
0.0
 13
225.0
 23
357.33843009
 33
0.0
  0
MTEXT
  5
15A2
100
AcDbEntity
  8
0
 62
       0
100
AcDbMText
 10
112.5
 20
360.46343009
 30
0.0
 40
5.0
 41
0.0
 71
       5
 72
       1
  1
225
1001
ACAD
1000
MTEXTBEGIN
1070
      73
1070
       1
1070
      44
1040
1.0
1070
      74
1070
       0
1000
MTEXTEND
1000
MTEXTBEGIN
1070
      73
1070
       1
1070
      44
1040
1.0
1070
      74
1070
       0
1000
MTEXTEND
  0
POINT
  5
15A3
100
AcDbEntity
  8
DEFPOINTS
 62
       0
100
AcDbPoint
 10
0.0
 20
227.84723627
 30
0.0
  0
POINT
  5
15A4
100
AcDbEntity
  8
DEFPOINTS
 62
       0
100
AcDbPoint
 10
225.0
 20
267.03330455
 30
0.0
  0
POINT
  5
15A5
100
AcDbEntity
  8
DEFPOINTS
 62
       0
100
AcDbPoint
 10
225.0
 20
357.33843009
 30
0.0
  0
ENDBLK
  5
153B
100
AcDbEntity
  8
0
100
AcDbBlockEnd
  0
BLOCK
  5
1547
100
AcDbEntity
  8
0
100
AcDbBlockBegin
  2
*D56
 70
      65
 10
0.0
 20
0.0
 30
0.0
  3
*D56
  1

  0
LINE
  5
1594
100
AcDbEntity
  8
0
 62
       0
100
AcDbLine
 10
0.0
 20
228.47223627
 30
0.0
 11
0.0
 21
367.60985145
 31
0.0
1001
ACAD
1000
RTLwPs
1070
     158
  0
LINE
  5
1595
100
AcDbEntity
  8
0
 62
       0
100
AcDbLine
 10
262.0
 20
262.56505685
 30
0.0
 11
262.0
 21
367.60985145
 31
0.0
1001
ACAD
1000
RTLwPs
1070
     158
  0
LINE
  5
1596
100
AcDbEntity
  8
0
 62
       0
100
AcDbLine
 10
2.5
 20
366.35985145
 30
0.0
 11
259.5
 21
366.35985145
 31
0.0
1001
ACAD
1000
RTLwPs
1070
     158
  0
SOLID
  5
1597
100
AcDbEntity
  8
0
 62
       0
100
AcDbTrace
 10
2.5
 20
366.77651811
 30
0.0
 11
2.5
 21
365.94318478
 31
0.0
 12
0.0
 22
366.35985145
 32
0.0
 13
0.0
 23
366.35985145
 33
0.0
  0
SOLID
  5
1598
100
AcDbEntity
  8
0
 62
       0
100
AcDbTrace
 10
259.5
 20
366.77651811
 30
0.0
 11
259.5
 21
365.94318478
 31
0.0
 12
262.0
 22
366.35985145
 32
0.0
 13
262.0
 23
366.35985145
 33
0.0
  0
MTEXT
  5
1599
100
AcDbEntity
  8
0
 62
       0
100
AcDbMText
 10
131.0
 20
369.48485145
 30
0.0
 40
5.0
 41
0.0
 71
       5
 72
       1
  1
262
1001
ACAD
1000
MTEXTBEGIN
1070
      73
1070
       1
1070
      44
1040
1.0
1070
      74
1070
       0
1000
MTEXTEND
1000
MTEXTBEGIN
1070
      73
1070
       1
1070
      44
1040
1.0
1070
      74
1070
       0
1000
MTEXTEND
  0
POINT
  5
159A
100
AcDbEntity
  8
DEFPOINTS
 62
       0
100
AcDbPoint
 10
0.0
 20
227.84723627
 30
0.0
  0
POINT
  5
159B
100
AcDbEntity
  8
DEFPOINTS
 62
       0
100
AcDbPoint
 10
262.0
 20
261.94005685
 30
0.0
  0
POINT
  5
159C
100
AcDbEntity
  8
DEFPOINTS
 62
       0
100
AcDbPoint
 10
262.0
 20
366.35985145
 30
0.0
  0
ENDBLK
  5
1548
100
AcDbEntity
  8
0
100
AcDbBlockEnd
  0
BLOCK
  5
1554
100
AcDbEntity
  8
0
100
AcDbBlockBegin
  2
*D57
 70
      65
 10
0.0
 20
0.0
 30
0.0
  3
*D57
  1

  0
LINE
  5
158B
100
AcDbEntity
  8
0
 62
       0
100
AcDbLine
 10
0.0
 20
228.47223627
 30
0.0
 11
0.0
 21
378.13484322
 31
0.0
1001
ACAD
1000
RTLwPs
1070
     158
  0
LINE
  5
158C
100
AcDbEntity
  8
0
 62
       0
100
AcDbLine
 10
299.0
 20
257.47180916
 30
0.0
 11
299.0
 21
378.13484322
 31
0.0
1001
ACAD
1000
RTLwPs
1070
     158
  0
LINE
  5
158D
100
AcDbEntity
  8
0
 62
       0
100
AcDbLine
 10
2.5
 20
376.88484322
 30
0.0
 11
296.5
 21
376.88484322
 31
0.0
1001
ACAD
1000
RTLwPs
1070
     158
  0
SOLID
  5
158E
100
AcDbEntity
  8
0
 62
       0
100
AcDbTrace
 10
2.5
 20
377.30150989
 30
0.0
 11
2.5
 21
376.46817655
 31
0.0
 12
0.0
 22
376.88484322
 32
0.0
 13
0.0
 23
376.88484322
 33
0.0
  0
SOLID
  5
158F
100
AcDbEntity
  8
0
 62
       0
100
AcDbTrace
 10
296.5
 20
377.30150989
 30
0.0
 11
296.5
 21
376.46817655
 31
0.0
 12
299.0
 22
376.88484322
 32
0.0
 13
299.0
 23
376.88484322
 33
0.0
  0
MTEXT
  5
1590
100
AcDbEntity
  8
0
 62
       0
100
AcDbMText
 10
149.5
 20
380.00984322
 30
0.0
 40
5.0
 41
0.0
 71
       5
 72
       1
  1
299
1001
ACAD
1000
MTEXTBEGIN
1070
      73
1070
       1
1070
      44
1040
1.0
1070
      74
1070
       0
1000
MTEXTEND
1000
MTEXTBEGIN
1070
      73
1070
       1
1070
      44
1040
1.0
1070
      74
1070
       0
1000
MTEXTEND
  0
POINT
  5
1591
100
AcDbEntity
  8
DEFPOINTS
 62
       0
100
AcDbPoint
 10
0.0
 20
227.84723627
 30
0.0
  0
POINT
  5
1592
100
AcDbEntity
  8
DEFPOINTS
 62
       0
100
AcDbPoint
 10
299.0
 20
256.84680916
 30
0.0
  0
POINT
  5
1593
100
AcDbEntity
  8
DEFPOINTS
 62
       0
100
AcDbPoint
 10
299.0
 20
376.88484322
 30
0.0
  0
ENDBLK
  5
1555
100
AcDbEntity
  8
0
100
AcDbBlockEnd
  0
BLOCK
  5
1561
100
AcDbEntity
  8
0
100
AcDbBlockBegin
  2
*D58
 70
      65
 10
0.0
 20
0.0
 30
0.0
  3
*D58
  1

  0
LINE
  5
1582
100
AcDbEntity
  8
0
 62
       0
100
AcDbLine
 10
0.0
 20
228.47223627
 30
0.0
 11
0.0
 21
387.65745545
 31
0.0
1001
ACAD
1000
RTLwPs
1070
     158
  0
LINE
  5
1583
100
AcDbEntity
  8
0
 62
       0
100
AcDbLine
 10
336.0
 20
252.37856147
 30
0.0
 11
336.0
 21
387.65745545
 31
0.0
1001
ACAD
1000
RTLwPs
1070
     158
  0
LINE
  5
1584
100
AcDbEntity
  8
0
 62
       0
100
AcDbLine
 10
2.5
 20
386.40745545
 30
0.0
 11
333.5
 21
386.40745545
 31
0.0
1001
ACAD
1000
RTLwPs
1070
     158
  0
SOLID
  5
1585
100
AcDbEntity
  8
0
 62
       0
100
AcDbTrace
 10
2.5
 20
386.82412212
 30
0.0
 11
2.5
 21
385.99078879
 31
0.0
 12
0.0
 22
386.40745545
 32
0.0
 13
0.0
 23
386.40745545
 33
0.0
  0
SOLID
  5
1586
100
AcDbEntity
  8
0
 62
       0
100
AcDbTrace
 10
333.5
 20
386.82412212
 30
0.0
 11
333.5
 21
385.99078879
 31
0.0
 12
336.0
 22
386.40745545
 32
0.0
 13
336.0
 23
386.40745545
 33
0.0
  0
MTEXT
  5
1587
100
AcDbEntity
  8
0
 62
       0
100
AcDbMText
 10
168.0
 20
389.53245545
 30
0.0
 40
5.0
 41
0.0
 71
       5
 72
       1
  1
336
1001
ACAD
1000
MTEXTBEGIN
1070
      73
1070
       1
1070
      44
1040
1.0
1070
      74
1070
       0
1000
MTEXTEND
1000
MTEXTBEGIN
1070
      73
1070
       1
1070
      44
1040
1.0
1070
      74
1070
       0
1000
MTEXTEND
  0
POINT
  5
1588
100
AcDbEntity
  8
DEFPOINTS
 62
       0
100
AcDbPoint
 10
0.0
 20
227.84723627
 30
0.0
  0
POINT
  5
1589
100
AcDbEntity
  8
DEFPOINTS
 62
       0
100
AcDbPoint
 10
336.0
 20
251.75356147
 30
0.0
  0
POINT
  5
158A
100
AcDbEntity
  8
DEFPOINTS
 62
       0
100
AcDbPoint
 10
336.0
 20
386.40745545
 30
0.0
  0
ENDBLK
  5
1562
100
AcDbEntity
  8
0
100
AcDbBlockEnd
  0
BLOCK
  5
15F0
100
AcDbEntity
  8
0
100
AcDbBlockBegin
  2
*D59
 70
      65
 10
0.0
 20
0.0
 30
0.0
  3
*D59
  1

  0
LINE
  5
1627
100
AcDbEntity
  8
0
 62
       0
100
AcDbLine
 10
24.375
 20
286.0
 30
0.0
 11
-21.80969491
 21
286.0
 31
0.0
1001
ACAD
1000
RTLwPs
1070
     158
  0
LINE
  5
1628
100
AcDbEntity
  8
0
 62
       0
100
AcDbLine
 10
12.375
 20
273.0
 30
0.0
 11
-21.80969491
 21
273.0
 31
0.0
1001
ACAD
1000
RTLwPs
1070
     158
  0
LINE
  5
1629
100
AcDbEntity
  8
0
 62
       0
100
AcDbLine
 10
-20.55969491
 20
283.5
 30
0.0
 11
-20.55969491
 21
275.5
 31
0.0
1001
ACAD
1000
RTLwPs
1070
     158
  0
SOLID
  5
162A
100
AcDbEntity
  8
0
 62
       0
100
AcDbTrace
 10
-20.97636158
 20
283.5
 30
0.0
 11
-20.14302825
 21
283.5
 31
0.0
 12
-20.55969491
 22
286.0
 32
0.0
 13
-20.55969491
 23
286.0
 33
0.0
  0
SOLID
  5
162B
100
AcDbEntity
  8
0
 62
       0
100
AcDbTrace
 10
-20.97636158
 20
275.5
 30
0.0
 11
-20.14302825
 21
275.5
 31
0.0
 12
-20.55969491
 22
273.0
 32
0.0
 13
-20.55969491
 23
273.0
 33
0.0
  0
MTEXT
  5
162C
100
AcDbEntity
  8
0
 62
       0
100
AcDbMText
 10
-23.68469491
 20
279.5
 30
0.0
 40
5.0
 41
0.0
 71
       5
 72
       1
  1
13
 11
0.0
 21
1.0
 31
0.0
1001
ACAD
1000
MTEXTBEGIN
1070
      73
1070
       1
1070
      44
1040
1.0
1070
      74
1070
       0
1000
MTEXTEND
1000
MTEXTBEGIN
1070
      73
1070
       1
1070
      44
1040
1.0
1070
      74
1070
       0
1000
MTEXTEND
  0
POINT
  5
162D
100
AcDbEntity
  8
DEFPOINTS
 62
       0
100
AcDbPoint
 10
25.0
 20
286.0
 30
0.0
  0
POINT
  5
162E
100
AcDbEntity
  8
DEFPOINTS
 62
       0
100
AcDbPoint
 10
13.0
 20
273.0
 30
0.0
  0
POINT
  5
162F
100
AcDbEntity
  8
DEFPOINTS
 62
       0
100
AcDbPoint
 10
-20.55969491
 20
273.0
 30
0.0
  0
ENDBLK
  5
15F1
100
AcDbEntity
  8
0
100
AcDbBlockEnd
  0
BLOCK
  5
15FD
100
AcDbEntity
  8
0
100
AcDbBlockBegin
  2
*D60
 70
      65
 10
0.0
 20
0.0
 30
0.0
  3
*D60
  1

  0
LINE
  5
1630
100
AcDbEntity
  8
0
 62
       0
100
AcDbLine
 10
24.375
 20
286.0
 30
0.0
 11
-32.19973567
 21
286.0
 31
0.0
1001
ACAD
1000
RTLwPs
1070
     158
  0
LINE
  5
1631
100
AcDbEntity
  8
0
 62
       0
100
AcDbLine
 10
12.375
 20
246.0
 30
0.0
 11
-32.19973567
 21
246.0
 31
0.0
1001
ACAD
1000
RTLwPs
1070
     158
  0
LINE
  5
1632
100
AcDbEntity
  8
0
 62
       0
100
AcDbLine
 10
-30.94973567
 20
283.5
 30
0.0
 11
-30.94973567
 21
248.5
 31
0.0
1001
ACAD
1000
RTLwPs
1070
     158
  0
SOLID
  5
1633
100
AcDbEntity
  8
0
 62
       0
100
AcDbTrace
 10
-31.36640233
 20
283.5
 30
0.0
 11
-30.533069
 21
283.5
 31
0.0
 12
-30.94973567
 22
286.0
 32
0.0
 13
-30.94973567
 23
286.0
 33
0.0
  0
SOLID
  5
1634
100
AcDbEntity
  8
0
 62
       0
100
AcDbTrace
 10
-31.36640233
 20
248.5
 30
0.0
 11
-30.533069
 21
248.5
 31
0.0
 12
-30.94973567
 22
246.0
 32
0.0
 13
-30.94973567
 23
246.0
 33
0.0
  0
MTEXT
  5
1635
100
AcDbEntity
  8
0
 62
       0
100
AcDbMText
 10
-34.07473567
 20
266.0
 30
0.0
 40
5.0
 41
0.0
 71
       5
 72
       1
  1
40
 11
0.0
 21
1.0
 31
0.0
1001
ACAD
1000
MTEXTBEGIN
1070
      73
1070
       1
1070
      44
1040
1.0
1070
      74
1070
       0
1000
MTEXTEND
1000
MTEXTBEGIN
1070
      73
1070
       1
1070
      44
1040
1.0
1070
      74
1070
       0
1000
MTEXTEND
  0
POINT
  5
1636
100
AcDbEntity
  8
DEFPOINTS
 62
       0
100
AcDbPoint
 10
25.0
 20
286.0
 30
0.0
  0
POINT
  5
1637
100
AcDbEntity
  8
DEFPOINTS
 62
       0
100
AcDbPoint
 10
13.0
 20
246.0
 30
0.0
  0
POINT
  5
1638
100
AcDbEntity
  8
DEFPOINTS
 62
       0
100
AcDbPoint
 10
-30.94973567
 20
246.0
 30
0.0
  0
ENDBLK
  5
15FE
100
AcDbEntity
  8
0
100
AcDbBlockEnd
  0
BLOCK
  5
160A
100
AcDbEntity
  8
0
100
AcDbBlockBegin
  2
*D61
 70
      65
 10
0.0
 20
0.0
 30
0.0
  3
*D61
  1

  0
LINE
  5
1639
100
AcDbEntity
  8
0
 62
       0
100
AcDbLine
 10
24.375
 20
286.0
 30
0.0
 11
-41.76950971
 21
286.0
 31
0.0
1001
ACAD
1000
RTLwPs
1070
     158
  0
LINE
  5
163A
100
AcDbEntity
  8
0
 62
       0
100
AcDbLine
 10
12.375
 20
209.0
 30
0.0
 11
-41.76950971
 21
209.0
 31
0.0
1001
ACAD
1000
RTLwPs
1070
     158
  0
LINE
  5
163B
100
AcDbEntity
  8
0
 62
       0
100
AcDbLine
 10
-40.51950971
 20
283.5
 30
0.0
 11
-40.51950971
 21
211.5
 31
0.0
1001
ACAD
1000
RTLwPs
1070
     158
  0
SOLID
  5
163C
100
AcDbEntity
  8
0
 62
       0
100
AcDbTrace
 10
-40.93617638
 20
283.5
 30
0.0
 11
-40.10284304
 21
283.5
 31
0.0
 12
-40.51950971
 22
286.0
 32
0.0
 13
-40.51950971
 23
286.0
 33
0.0
  0
SOLID
  5
163D
100
AcDbEntity
  8
0
 62
       0
100
AcDbTrace
 10
-40.93617638
 20
211.5
 30
0.0
 11
-40.10284304
 21
211.5
 31
0.0
 12
-40.51950971
 22
209.0
 32
0.0
 13
-40.51950971
 23
209.0
 33
0.0
  0
MTEXT
  5
163E
100
AcDbEntity
  8
0
 62
       0
100
AcDbMText
 10
-43.64450971
 20
247.5
 30
0.0
 40
5.0
 41
0.0
 71
       5
 72
       1
  1
77
 11
0.0
 21
1.0
 31
0.0
1001
ACAD
1000
MTEXTBEGIN
1070
      73
1070
       1
1070
      44
1040
1.0
1070
      74
1070
       0
1000
MTEXTEND
1000
MTEXTBEGIN
1070
      73
1070
       1
1070
      44
1040
1.0
1070
      74
1070
       0
1000
MTEXTEND
  0
POINT
  5
163F
100
AcDbEntity
  8
DEFPOINTS
 62
       0
100
AcDbPoint
 10
25.0
 20
286.0
 30
0.0
  0
POINT
  5
1640
100
AcDbEntity
  8
DEFPOINTS
 62
       0
100
AcDbPoint
 10
13.0
 20
209.0
 30
0.0
  0
POINT
  5
1641
100
AcDbEntity
  8
DEFPOINTS
 62
       0
100
AcDbPoint
 10
-40.51950971
 20
209.0
 30
0.0
  0
ENDBLK
  5
160B
100
AcDbEntity
  8
0
100
AcDbBlockEnd
  0
BLOCK
  5
16CB
100
AcDbEntity
  8
0
100
AcDbBlockBegin
  2
*D62
 70
      65
 10
0.0
 20
0.0
 30
0.0
  3
*D62
  1

  0
LINE
  5
16C5
100
AcDbEntity
  8
0
 62
       0
100
AcDbLine
 10
391.04607501
 20
272.96858973
 30
0.0
 11
378.029072
 21
255.0958846
 31
0.0
1001
ACAD
1000
RTLwPs
1070
     158
  0
MTEXT
  5
16C6
100
AcDbEntity
  8
0
 62
       0
100
AcDbMText
 10
384.22725222
 20
268.91424841
 30
0.0
 40
5.0
 41
0.0
 71
       5
 72
       1
  1
R57
 11
0.5887239
 21
0.80833419
 31
0.0
1001
ACAD
1000
MTEXTBEGIN
1070
      73
1070
       1
1070
      44
1040
1.0
1070
      74
1070
       0
1000
MTEXTEND
1000
MTEXTBEGIN
1070
      73
1070
       1
1070
      44
1040
1.0
1070
      74
1070
       0
1000
MTEXTEND
  0
LINE
  5
16C7
100
AcDbEntity
  8
0
 62
       0
100
AcDbLine
 10
343.0
 20
207.0
 30
0.0
 11
376.55726225
 21
253.07504911
 31
0.0
1001
ACAD
1000
RTLwPs
1070
     158
  0
SOLID
  5
16C8
100
AcDbEntity
  8
0
 62
       0
100
AcDbTrace
 10
377.69226608
 20
255.34118622
 30
0.0
 11
378.36587791
 21
254.85058297
 31
0.0
 12
376.55726225
 22
253.07504911
 32
0.0
 13
376.55726225
 23
253.07504911
 33
0.0
  0
POINT
  5
16C9
100
AcDbEntity
  8
DEFPOINTS
 62
       0
100
AcDbPoint
 10
376.55726225
 20
253.07504911
 30
0.0
  0
POINT
  5
16CA
100
AcDbEntity
  8
DEFPOINTS
 62
       0
100
AcDbPoint
 10
343.0
 20
207.0
 30
0.0
  0
ENDBLK
  5
16CC
100
AcDbEntity
  8
0
100
AcDbBlockEnd
  0
BLOCK
  5
16DA
100
AcDbEntity
  8
0
100
AcDbBlockBegin
  2
*D63
 70
      65
 10
0.0
 20
0.0
 30
0.0
  3
*D63
  1

  0
LINE
  5
16F2
100
AcDbEntity
  8
0
 62
       0
100
AcDbLine
 10
436.44453125
 20
143.0
 30
0.0
 11
450.17493181
 21
143.0
 31
0.0
1001
ACAD
1000
RTLwPs
1070
     158
  0
LINE
  5
16F3
100
AcDbEntity
  8
0
 62
       0
100
AcDbLine
 10
343.625
 20
207.0
 30
0.0
 11
450.17493181
 21
207.0
 31
0.0
1001
ACAD
1000
RTLwPs
1070
     158
  0
LINE
  5
16F4
100
AcDbEntity
  8
0
 62
       0
100
AcDbLine
 10
448.92493181
 20
145.5
 30
0.0
 11
448.92493181
 21
204.5
 31
0.0
1001
ACAD
1000
RTLwPs
1070
     158
  0
SOLID
  5
16F5
100
AcDbEntity
  8
0
 62
       0
100
AcDbTrace
 10
448.50826514
 20
145.5
 30
0.0
 11
449.34159847
 21
145.5
 31
0.0
 12
448.92493181
 22
143.0
 32
0.0
 13
448.92493181
 23
143.0
 33
0.0
  0
SOLID
  5
16F6
100
AcDbEntity
  8
0
 62
       0
100
AcDbTrace
 10
448.50826514
 20
204.5
 30
0.0
 11
449.34159847
 21
204.5
 31
0.0
 12
448.92493181
 22
207.0
 32
0.0
 13
448.92493181
 23
207.0
 33
0.0
  0
MTEXT
  5
16F7
100
AcDbEntity
  8
0
 62
       0
100
AcDbMText
 10
445.79993181
 20
175.0
 30
0.0
 40
5.0
 41
0.0
 71
       5
 72
       1
  1
64
 11
0.0
 21
1.0
 31
0.0
1001
ACAD
1000
MTEXTBEGIN
1070
      73
1070
       1
1070
      44
1040
1.0
1070
      74
1070
       0
1000
MTEXTEND
1000
MTEXTBEGIN
1070
      73
1070
       1
1070
      44
1040
1.0
1070
      74
1070
       0
1000
MTEXTEND
  0
POINT
  5
16F8
100
AcDbEntity
  8
DEFPOINTS
 62
       0
100
AcDbPoint
 10
435.81953125
 20
143.0
 30
0.0
  0
POINT
  5
16F9
100
AcDbEntity
  8
DEFPOINTS
 62
       0
100
AcDbPoint
 10
343.0
 20
207.0
 30
0.0
  0
POINT
  5
16FA
100
AcDbEntity
  8
DEFPOINTS
 62
       0
100
AcDbPoint
 10
448.92493181
 20
207.0
 30
0.0
  0
ENDBLK
  5
16DB
100
AcDbEntity
  8
0
100
AcDbBlockEnd
  0
BLOCK
  5
16E7
100
AcDbEntity
  8
0
100
AcDbBlockBegin
  2
*D64
 70
      65
 10
0.0
 20
0.0
 30
0.0
  3
*D64
  1

  0
LINE
  5
16E9
100
AcDbEntity
  8
0
 62
       0
100
AcDbLine
 10
0.0
 20
228.47223627
 30
0.0
 11
0.0
 21
397.20619964
 31
0.0
1001
ACAD
1000
RTLwPs
1070
     158
  0
LINE
  5
16EA
100
AcDbEntity
  8
0
 62
       0
100
AcDbLine
 10
343.0
 20
207.625
 30
0.0
 11
343.0
 21
397.20619964
 31
0.0
1001
ACAD
1000
RTLwPs
1070
     158
  0
LINE
  5
16EB
100
AcDbEntity
  8
0
 62
       0
100
AcDbLine
 10
2.5
 20
395.95619964
 30
0.0
 11
340.5
 21
395.95619964
 31
0.0
1001
ACAD
1000
RTLwPs
1070
     158
  0
SOLID
  5
16EC
100
AcDbEntity
  8
0
 62
       0
100
AcDbTrace
 10
2.5
 20
396.3728663
 30
0.0
 11
2.5
 21
395.53953297
 31
0.0
 12
0.0
 22
395.95619964
 32
0.0
 13
0.0
 23
395.95619964
 33
0.0
  0
SOLID
  5
16ED
100
AcDbEntity
  8
0
 62
       0
100
AcDbTrace
 10
340.5
 20
396.3728663
 30
0.0
 11
340.5
 21
395.53953297
 31
0.0
 12
343.0
 22
395.95619964
 32
0.0
 13
343.0
 23
395.95619964
 33
0.0
  0
MTEXT
  5
16EE
100
AcDbEntity
  8
0
 62
       0
100
AcDbMText
 10
171.5
 20
399.08119964
 30
0.0
 40
5.0
 41
0.0
 71
       5
 72
       1
  1
343
1001
ACAD
1000
MTEXTBEGIN
1070
      73
1070
       1
1070
      44
1040
1.0
1070
      74
1070
       0
1000
MTEXTEND
1000
MTEXTBEGIN
1070
      73
1070
       1
1070
      44
1040
1.0
1070
      74
1070
       0
1000
MTEXTEND
  0
POINT
  5
16EF
100
AcDbEntity
  8
DEFPOINTS
 62
       0
100
AcDbPoint
 10
0.0
 20
227.84723627
 30
0.0
  0
POINT
  5
16F0
100
AcDbEntity
  8
DEFPOINTS
 62
       0
100
AcDbPoint
 10
343.0
 20
207.0
 30
0.0
  0
POINT
  5
16F1
100
AcDbEntity
  8
DEFPOINTS
 62
       0
100
AcDbPoint
 10
343.0
 20
395.95619964
 30
0.0
  0
ENDBLK
  5
16E8
100
AcDbEntity
  8
0
100
AcDbBlockEnd
  0
BLOCK
  5
1707
100
AcDbEntity
  8
0
100
AcDbBlockBegin
  2
*D65
 70
      65
 10
0.0
 20
0.0
 30
0.0
  3
*D65
  1

  0
LINE
  5
16FD
100
AcDbEntity
  8
0
 62
       0
100
AcDbLine
 10
187.375
 20
272.12655224
 30
0.0
 11
166.7899393
 21
272.12655224
 31
0.0
1001
ACAD
1000
RTLwPs
1070
     158
  0
LINE
  5
16FE
100
AcDbEntity
  8
0
 62
       0
100
AcDbLine
 10
181.92
 20
286.0
 30
0.0
 11
166.7899393
 21
286.0
 31
0.0
1001
ACAD
1000
RTLwPs
1070
     158
  0
LINE
  5
16FF
100
AcDbEntity
  8
0
 62
       0
100
AcDbLine
 10
168.0399393
 20
274.62655224
 30
0.0
 11
168.0399393
 21
283.5
 31
0.0
1001
ACAD
1000
RTLwPs
1070
     158
  0
LINE
  5
1700
100
AcDbEntity
  8
0
 62
       0
100
AcDbLine
 10
168.0399393
 20
286.0
 30
0.0
 11
168.0399393
 21
303.91666667
 31
0.0
1001
ACAD
1000
RTLwPs
1070
     158
  0
SOLID
  5
1701
100
AcDbEntity
  8
0
 62
       0
100
AcDbTrace
 10
167.62327264
 20
274.62655224
 30
0.0
 11
168.45660597
 21
274.62655224
 31
0.0
 12
168.0399393
 22
272.12655224
 32
0.0
 13
168.0399393
 23
272.12655224
 33
0.0
  0
SOLID
  5
1702
100
AcDbEntity
  8
0
 62
       0
100
AcDbTrace
 10
167.62327264
 20
283.5
 30
0.0
 11
168.45660597
 21
283.5
 31
0.0
 12
168.0399393
 22
286.0
 32
0.0
 13
168.0399393
 23
286.0
 33
0.0
  0
MTEXT
  5
1703
100
AcDbEntity
  8
0
 62
       0
100
AcDbMText
 10
164.49827264
 20
296.20833333
 30
0.0
 40
5.0
 41
0.0
 71
       5
 72
       1
  1
13,9
 11
0.0
 21
1.0
 31
0.0
1001
ACAD
1000
MTEXTBEGIN
1070
      73
1070
       1
1070
      44
1040
1.0
1070
      74
1070
       0
1000
MTEXTEND
1000
MTEXTBEGIN
1070
      73
1070
       1
1070
      44
1040
1.0
1070
      74
1070
       0
1000
MTEXTEND
  0
POINT
  5
1704
100
AcDbEntity
  8
DEFPOINTS
 62
       0
100
AcDbPoint
 10
188.0
 20
272.12655224
 30
0.0
  0
POINT
  5
1705
100
AcDbEntity
  8
DEFPOINTS
 62
       0
100
AcDbPoint
 10
182.545
 20
286.0
 30
0.0
  0
POINT
  5
1706
100
AcDbEntity
  8
DEFPOINTS
 62
       0
100
AcDbPoint
 10
168.0399393
 20
286.0
 30
0.0
  0
ENDBLK
  5
1708
100
AcDbEntity
  8
0
100
AcDbBlockEnd
  0
BLOCK
  5
1714
100
AcDbEntity
  8
0
100
AcDbBlockBegin
  2
*D66
 70
      65
 10
0.0
 20
0.0
 30
0.0
  3
*D66
  1

  0
LINE
  5
175A
100
AcDbEntity
  8
0
 62
       0
100
AcDbLine
 10
224.375
 20
267.03330455
 30
0.0
 11
205.32556296
 21
267.03330455
 31
0.0
1001
ACAD
1000
RTLwPs
1070
     158
  0
LINE
  5
175B
100
AcDbEntity
  8
0
 62
       0
100
AcDbLine
 10
183.17
 20
286.0
 30
0.0
 11
207.82556296
 21
286.0
 31
0.0
1001
ACAD
1000
RTLwPs
1070
     158
  0
LINE
  5
175C
100
AcDbEntity
  8
0
 62
       0
100
AcDbLine
 10
206.57556296
 20
269.53330455
 30
0.0
 11
206.57556296
 21
283.5
 31
0.0
1001
ACAD
1000
RTLwPs
1070
     158
  0
LINE
  5
175D
100
AcDbEntity
  8
0
 62
       0
100
AcDbLine
 10
206.57556296
 20
286.0
 30
0.0
 11
206.57556296
 21
301.89901468
 31
0.0
1001
ACAD
1000
RTLwPs
1070
     158
  0
SOLID
  5
175E
100
AcDbEntity
  8
0
 62
       0
100
AcDbTrace
 10
206.15889629
 20
269.53330455
 30
0.0
 11
206.99222962
 21
269.53330455
 31
0.0
 12
206.57556296
 22
267.03330455
 32
0.0
 13
206.57556296
 23
267.03330455
 33
0.0
  0
SOLID
  5
175F
100
AcDbEntity
  8
0
 62
       0
100
AcDbTrace
 10
206.15889629
 20
283.5
 30
0.0
 11
206.99222962
 21
283.5
 31
0.0
 12
206.57556296
 22
286.0
 32
0.0
 13
206.57556296
 23
286.0
 33
0.0
  0
MTEXT
  5
1760
100
AcDbEntity
  8
0
 62
       0
100
AcDbMText
 10
203.45056296
 20
297.94068134
 30
0.0
 40
5.0
 41
0.0
 71
       5
 72
       1
  1
19
 11
0.0
 21
1.0
 31
0.0
1001
ACAD
1000
MTEXTBEGIN
1070
      73
1070
       1
1070
      44
1040
1.0
1070
      74
1070
       0
1000
MTEXTEND
1000
MTEXTBEGIN
1070
      73
1070
       1
1070
      44
1040
1.0
1070
      74
1070
       0
1000
MTEXTEND
  0
POINT
  5
1761
100
AcDbEntity
  8
DEFPOINTS
 62
       0
100
AcDbPoint
 10
225.0
 20
267.03330455
 30
0.0
  0
POINT
  5
1762
100
AcDbEntity
  8
DEFPOINTS
 62
       0
100
AcDbPoint
 10
182.545
 20
286.0
 30
0.0
  0
POINT
  5
1763
100
AcDbEntity
  8
DEFPOINTS
 62
       0
100
AcDbPoint
 10
206.57556296
 20
286.0
 30
0.0
  0
ENDBLK
  5
1715
100
AcDbEntity
  8
0
100
AcDbBlockEnd
  0
BLOCK
  5
1721
100
AcDbEntity
  8
0
100
AcDbBlockBegin
  2
*D67
 70
      65
 10
0.0
 20
0.0
 30
0.0
  3
*D67
  1

  0
LINE
  5
1764
100
AcDbEntity
  8
0
 62
       0
100
AcDbLine
 10
261.375
 20
261.94005685
 30
0.0
 11
241.16204609
 21
261.94005685
 31
0.0
1001
ACAD
1000
RTLwPs
1070
     158
  0
LINE
  5
1765
100
AcDbEntity
  8
0
 62
       0
100
AcDbLine
 10
183.795
 20
286.0
 30
0.0
 11
243.66204609
 21
286.0
 31
0.0
1001
ACAD
1000
RTLwPs
1070
     158
  0
LINE
  5
1766
100
AcDbEntity
  8
0
 62
       0
100
AcDbLine
 10
242.41204609
 20
264.44005685
 30
0.0
 11
242.41204609
 21
283.5
 31
0.0
1001
ACAD
1000
RTLwPs
1070
     158
  0
LINE
  5
1767
100
AcDbEntity
  8
0
 62
       0
100
AcDbLine
 10
242.41204609
 20
286.0
 30
0.0
 11
242.41204609
 21
305.48281549
 31
0.0
1001
ACAD
1000
RTLwPs
1070
     158
  0
SOLID
  5
1768
100
AcDbEntity
  8
0
 62
       0
100
AcDbTrace
 10
241.99537942
 20
264.44005685
 30
0.0
 11
242.82871276
 21
264.44005685
 31
0.0
 12
242.41204609
 22
261.94005685
 32
0.0
 13
242.41204609
 23
261.94005685
 33
0.0
  0
SOLID
  5
1769
100
AcDbEntity
  8
0
 62
       0
100
AcDbTrace
 10
241.99537942
 20
283.5
 30
0.0
 11
242.82871276
 21
283.5
 31
0.0
 12
242.41204609
 22
286.0
 32
0.0
 13
242.41204609
 23
286.0
 33
0.0
  0
MTEXT
  5
176A
100
AcDbEntity
  8
0
 62
       0
100
AcDbMText
 10
238.87037942
 20
297.77448215
 30
0.0
 40
5.0
 41
0.0
 71
       5
 72
       1
  1
24,1
 11
0.0
 21
1.0
 31
0.0
1001
ACAD
1000
MTEXTBEGIN
1070
      73
1070
       1
1070
      44
1040
1.0
1070
      74
1070
       0
1000
MTEXTEND
1000
MTEXTBEGIN
1070
      73
1070
       1
1070
      44
1040
1.0
1070
      74
1070
       0
1000
MTEXTEND
  0
POINT
  5
176B
100
AcDbEntity
  8
DEFPOINTS
 62
       0
100
AcDbPoint
 10
262.0
 20
261.94005685
 30
0.0
  0
POINT
  5
176C
100
AcDbEntity
  8
DEFPOINTS
 62
       0
100
AcDbPoint
 10
183.17
 20
286.0
 30
0.0
  0
POINT
  5
176D
100
AcDbEntity
  8
DEFPOINTS
 62
       0
100
AcDbPoint
 10
242.41204609
 20
286.0
 30
0.0
  0
ENDBLK
  5
1722
100
AcDbEntity
  8
0
100
AcDbBlockEnd
  0
BLOCK
  5
1737
100
AcDbEntity
  8
0
100
AcDbBlockBegin
  2
*D68
 70
      65
 10
0.0
 20
0.0
 30
0.0
  3
*D68
  1

  0
LINE
  5
176E
100
AcDbEntity
  8
0
 62
       0
100
AcDbLine
 10
298.375
 20
256.84680916
 30
0.0
 11
282.12742224
 21
256.84680916
 31
0.0
1001
ACAD
1000
RTLwPs
1070
     158
  0
LINE
  5
176F
100
AcDbEntity
  8
0
 62
       0
100
AcDbLine
 10
246.57871276
 20
286.0
 30
0.0
 11
284.62742224
 21
286.0
 31
0.0
1001
ACAD
1000
RTLwPs
1070
     158
  0
LINE
  5
1770
100
AcDbEntity
  8
0
 62
       0
100
AcDbLine
 10
283.37742224
 20
259.34680916
 30
0.0
 11
283.37742224
 21
283.5
 31
0.0
1001
ACAD
1000
RTLwPs
1070
     158
  0
LINE
  5
1771
100
AcDbEntity
  8
0
 62
       0
100
AcDbLine
 10
283.37742224
 20
286.0
 30
0.0
 11
283.37742224
 21
307.97813629
 31
0.0
1001
ACAD
1000
RTLwPs
1070
     158
  0
SOLID
  5
1772
100
AcDbEntity
  8
0
 62
       0
100
AcDbTrace
 10
282.96075557
 20
259.34680916
 30
0.0
 11
283.7940889
 21
259.34680916
 31
0.0
 12
283.37742224
 22
256.84680916
 32
0.0
 13
283.37742224
 23
256.84680916
 33
0.0
  0
SOLID
  5
1773
100
AcDbEntity
  8
0
 62
       0
100
AcDbTrace
 10
282.96075557
 20
283.5
 30
0.0
 11
283.7940889
 21
283.5
 31
0.0
 12
283.37742224
 22
286.0
 32
0.0
 13
283.37742224
 23
286.0
 33
0.0
  0
MTEXT
  5
1774
100
AcDbEntity
  8
0
 62
       0
100
AcDbMText
 10
279.83575557
 20
299.43646963
 30
0.0
 40
5.0
 41
0.0
 71
       5
 72
       1
  1
29,2
 11
0.0
 21
1.0
 31
0.0
1001
ACAD
1000
MTEXTBEGIN
1070
      73
1070
       1
1070
      44
1040
1.0
1070
      74
1070
       0
1000
MTEXTEND
1000
MTEXTBEGIN
1070
      73
1070
       1
1070
      44
1040
1.0
1070
      74
1070
       0
1000
MTEXTEND
  0
POINT
  5
1775
100
AcDbEntity
  8
DEFPOINTS
 62
       0
100
AcDbPoint
 10
299.0
 20
256.84680916
 30
0.0
  0
POINT
  5
1776
100
AcDbEntity
  8
DEFPOINTS
 62
       0
100
AcDbPoint
 10
245.95371276
 20
286.0
 30
0.0
  0
POINT
  5
1777
100
AcDbEntity
  8
DEFPOINTS
 62
       0
100
AcDbPoint
 10
283.37742224
 20
286.0
 30
0.0
  0
ENDBLK
  5
1738
100
AcDbEntity
  8
0
100
AcDbBlockEnd
  0
BLOCK
  5
1744
100
AcDbEntity
  8
0
100
AcDbBlockBegin
  2
*D69
 70
      65
 10
0.0
 20
0.0
 30
0.0
  3
*D69
  1

  0
LINE
  5
1778
100
AcDbEntity
  8
0
 62
       0
100
AcDbLine
 10
335.375
 20
251.75356147
 30
0.0
 11
316.38498733
 21
251.75356147
 31
0.0
1001
ACAD
1000
RTLwPs
1070
     158
  0
LINE
  5
1779
100
AcDbEntity
  8
0
 62
       0
100
AcDbLine
 10
285.49264517
 20
286.0
 30
0.0
 11
318.88498733
 21
286.0
 31
0.0
1001
ACAD
1000
RTLwPs
1070
     158
  0
LINE
  5
177A
100
AcDbEntity
  8
0
 62
       0
100
AcDbLine
 10
317.63498733
 20
254.25356147
 30
0.0
 11
317.63498733
 21
283.5
 31
0.0
1001
ACAD
1000
RTLwPs
1070
     158
  0
LINE
  5
177B
100
AcDbEntity
  8
0
 62
       0
100
AcDbLine
 10
317.63498733
 20
286.0
 30
0.0
 11
317.63498733
 21
307.47953983
 31
0.0
1001
ACAD
1000
RTLwPs
1070
     158
  0
SOLID
  5
177C
100
AcDbEntity
  8
0
 62
       0
100
AcDbTrace
 10
317.21832067
 20
254.25356147
 30
0.0
 11
318.051654
 21
254.25356147
 31
0.0
 12
317.63498733
 22
251.75356147
 32
0.0
 13
317.63498733
 23
251.75356147
 33
0.0
  0
SOLID
  5
177D
100
AcDbEntity
  8
0
 62
       0
100
AcDbTrace
 10
317.21832067
 20
283.5
 30
0.0
 11
318.051654
 21
283.5
 31
0.0
 12
317.63498733
 22
286.0
 32
0.0
 13
317.63498733
 23
286.0
 33
0.0
  0
MTEXT
  5
177E
100
AcDbEntity
  8
0
 62
       0
100
AcDbMText
 10
314.09332067
 20
298.93787316
 30
0.0
 40
5.0
 41
0.0
 71
       5
 72
       1
  1
34,2
 11
0.0
 21
1.0
 31
0.0
1001
ACAD
1000
MTEXTBEGIN
1070
      73
1070
       1
1070
      44
1040
1.0
1070
      74
1070
       0
1000
MTEXTEND
1000
MTEXTBEGIN
1070
      73
1070
       1
1070
      44
1040
1.0
1070
      74
1070
       0
1000
MTEXTEND
  0
POINT
  5
177F
100
AcDbEntity
  8
DEFPOINTS
 62
       0
100
AcDbPoint
 10
336.0
 20
251.75356147
 30
0.0
  0
POINT
  5
1780
100
AcDbEntity
  8
DEFPOINTS
 62
       0
100
AcDbPoint
 10
284.86764517
 20
286.0
 30
0.0
  0
POINT
  5
1781
100
AcDbEntity
  8
DEFPOINTS
 62
       0
100
AcDbPoint
 10
317.63498733
 20
286.0
 30
0.0
  0
ENDBLK
  5
1745
100
AcDbEntity
  8
0
100
AcDbBlockEnd
  0
ENDSEC
  0
SECTION
  2
ENTITIES
  0
VIEWPORT
  5
178A
102
{ACAD_XDICTIONARY
360
1ACD
102
}
100
AcDbEntity
 67
       1
  8
0
100
AcDbViewport
 10
5.69652759
 20
3.98402798
 30
0.0
 40
14.2869761
 41
8.74907203
 68
       1
 69
       1
1001
ACAD
1000
MVIEW
1002
{
1070
      16
1010
0.0
1020
0.0
1030
0.0
1010
0.0
1020
0.0
1030
1.0
1040
0.0
1040
8.74907203
1040
5.69652759
1040
3.98402798
1040
50.0
1040
0.0
1040
0.0
1070
       0
1070
     100
1070
       1
1070
       1
1070
       0
1070
       0
1070
       0
1070
       0
1040
0.0
1040
0.0
1040
0.0
1040
10.0
1040
10.0
1040
10.0
1040
10.0
1070
       0
1002
{
1002
}
1002
}
  0
VIEWPORT
  5
178C
102
{ACAD_XDICTIONARY
360
1ACF
102
}
100
AcDbEntity
 67
       1
  8
0
100
AcDbViewport
 10
5.85965197
 20
3.92968592
 30
0.0
 40
8.48246727
 41
5.9912124
 68
       2
 69
       2
1001
ACAD
1000
MVIEW
1002
{
1070
      16
1010
0.0
1020
0.0
1030
0.0
1010
0.0
1020
0.0
1030
1.0
1040
0.0
1040
491.18906701
1040
147.39297814
1040
177.664007
1040
50.0
1040
0.0
1040
0.0
1070
       0
1070
     100
1070
       1
1070
       1
1070
       0
1070
       0
1070
       0
1070
       0
1040
0.0
1040
0.0
1040
0.0
1040
10.0
1040
10.0
1040
10.0
1040
10.0
1070
       0
1002
{
1002
}
1002
}
  0
LINE
  5
46
100
AcDbEntity
  8
0
100
AcDbLine
 10
10.5
 20
13.0
 30
0.0
 11
15.5
 21
13.0
 31
0.0
  0
LINE
  5
47
100
AcDbEntity
  8
0
100
AcDbLine
 10
13.0
 20
10.5
 30
0.0
 11
13.0
 21
15.5
 31
0.0
  0
LINE
  5
48
100
AcDbEntity
  8
0
100
AcDbLine
 10
0.0
 20
13.0
 30
0.0
 11
0.0
 21
273.0
 31
0.0
  0
LINE
  5
4A
100
AcDbEntity
  8
0
100
AcDbLine
 10
10.5
 20
273.0
 30
0.0
 11
15.5
 21
273.0
 31
0.0
  0
LINE
  5
4B
100
AcDbEntity
  8
0
100
AcDbLine
 10
13.0
 20
270.5
 30
0.0
 11
13.0
 21
275.5
 31
0.0
  0
LWPOLYLINE
  5
56
100
AcDbEntity
  8
0
100
AcDbPolyline
 90
        8
 70
       0
 10
400.0
 20
79.0
 42
-0.37572917
 10
350.56755005
 20
22.50458261
 10
181.92037442
 20
-0.0856734
 10
13.0
 20
0.0
 42
-0.41391649
 10
0.0
 20
13.0
 10
0.0
 20
273.0
 42
-0.41421356
 10
13.0
 20
286.0
 10
182.545
 20
286.0
1001
ACAD
1000
RTLwPs
1070
     139
  0
LINE
  5
5C
100
AcDbEntity
  8
0
 62
       2
100
AcDbLine
 10
-10.0
 20
143.0
 30
0.0
 11
410.0
 21
143.0
 31
0.0
  0
LINE
  5
7C
100
AcDbEntity
  8
0
100
AcDbLine
 10
60.5
 20
143.0
 30
0.0
 11
65.5
 21
143.0
 31
0.0
  0
LINE
  5
7D
100
AcDbEntity
  8
0
100
AcDbLine
 10
63.0
 20
140.5
 30
0.0
 11
63.0
 21
145.5
 31
0.0
  0
LINE
  5
88
100
AcDbEntity
  8
0
100
AcDbLine
 10
340.5
 20
143.0
 30
0.0
 11
345.5
 21
143.0
 31
0.0
  0
LINE
  5
89
100
AcDbEntity
  8
0
100
AcDbLine
 10
343.0
 20
140.5
 30
0.0
 11
343.0
 21
145.5
 31
0.0
  0
LINE
  5
B6
100
AcDbEntity
  8
0
100
AcDbLine
 10
378.5
 20
229.0
 30
0.0
 11
383.5
 21
229.0
 31
0.0
  0
LINE
  5
B7
100
AcDbEntity
  8
0
100
AcDbLine
 10
381.0
 20
226.5
 30
0.0
 11
381.0
 21
231.5
 31
0.0
  0
LINE
  5
BC
100
AcDbEntity
  8
0
100
AcDbLine
 10
378.5
 20
57.0
 30
0.0
 11
383.5
 21
57.0
 31
0.0
  0
LINE
  5
BD
100
AcDbEntity
  8
0
100
AcDbLine
 10
381.0
 20
54.5
 30
0.0
 11
381.0
 21
59.5
 31
0.0
  0
LINE
  5
BF
100
AcDbEntity
  8
0
100
AcDbLine
 10
357.5
 20
235.0
 30
0.0
 11
362.5
 21
235.0
 31
0.0
  0
LINE
  5
C0
100
AcDbEntity
  8
0
100
AcDbLine
 10
360.0
 20
232.5
 30
0.0
 11
360.0
 21
237.5
 31
0.0
  0
LINE
  5
C2
100
AcDbEntity
  8
0
100
AcDbLine
 10
357.5
 20
51.0
 30
0.0
 11
362.5
 21
51.0
 31
0.0
  0
LINE
  5
C3
100
AcDbEntity
  8
0
100
AcDbLine
 10
360.0
 20
48.5
 30
0.0
 11
360.0
 21
53.5
 31
0.0
  0
LINE
  5
C7
100
AcDbEntity
  8
0
100
AcDbLine
 10
320.0
 20
197.5
 30
0.0
 11
325.0
 21
197.5
 31
0.0
  0
LINE
  5
C8
100
AcDbEntity
  8
0
100
AcDbLine
 10
322.5
 20
195.0
 30
0.0
 11
322.5
 21
200.0
 31
0.0
  0
LINE
  5
CA
100
AcDbEntity
  8
0
100
AcDbLine
 10
320.0
 20
88.5
 30
0.0
 11
325.0
 21
88.5
 31
0.0
  0
LINE
  5
CB
100
AcDbEntity
  8
0
100
AcDbLine
 10
322.5
 20
86.0
 30
0.0
 11
322.5
 21
91.0
 31
0.0
  0
LINE
  5
CF
100
AcDbEntity
  8
0
100
AcDbLine
 10
54.5
 20
267.0
 30
0.0
 11
59.5
 21
267.0
 31
0.0
  0
LINE
  5
D0
100
AcDbEntity
  8
0
100
AcDbLine
 10
57.0
 20
264.5
 30
0.0
 11
57.0
 21
269.5
 31
0.0
  0
LINE
  5
D1
100
AcDbEntity
  8
0
100
AcDbLine
 10
54.5
 20
19.0
 30
0.0
 11
59.5
 21
19.0
 31
0.0
  0
LINE
  5
D2
100
AcDbEntity
  8
0
100
AcDbLine
 10
57.0
 20
16.5
 30
0.0
 11
57.0
 21
21.5
 31
0.0
  0
LINE
  5
D7
100
AcDbEntity
  8
0
100
AcDbLine
 10
47.0
 20
246.0
 30
0.0
 11
52.0
 21
246.0
 31
0.0
  0
LINE
  5
D8
100
AcDbEntity
  8
0
100
AcDbLine
 10
49.5
 20
243.5
 30
0.0
 11
49.5
 21
248.5
 31
0.0
  0
LINE
  5
F1
100
AcDbEntity
  8
0
100
AcDbLine
 10
19.0
 20
152.5
 30
0.0
 11
19.0
 21
157.5
 31
0.0
  0
LINE
  5
F3
100
AcDbEntity
  8
0
100
AcDbLine
 10
19.0
 20
128.5
 30
0.0
 11
19.0
 21
133.5
 31
0.0
  0
LINE
  5
11E
100
AcDbEntity
  8
0
100
AcDbLine
 10
357.87867966
 20
237.12132034
 30
0.0
 11
320.37867966
 21
199.62132034
 31
0.0
1001
ACAD
1000
RTLwPs
1070
     139
  0
LINE
  5
11F
100
AcDbEntity
  8
0
100
AcDbLine
 10
362.12132034
 20
232.87867966
 30
0.0
 11
324.62132034
 21
195.37867966
 31
0.0
1001
ACAD
1000
RTLwPs
1070
     139
  0
LINE
  5
120
100
AcDbEntity
  8
0
100
AcDbLine
 10
362.12132034
 20
53.12132034
 30
0.0
 11
324.62132034
 21
90.62132034
 31
0.0
1001
ACAD
1000
RTLwPs
1070
     139
  0
LINE
  5
121
100
AcDbEntity
  8
0
100
AcDbLine
 10
320.37867966
 20
86.37867966
 30
0.0
 11
357.87867966
 21
48.87867966
 31
0.0
1001
ACAD
1000
RTLwPs
1070
     139
  0
ARC
  5
133
100
AcDbEntity
  8
0
100
AcDbCircle
 10
322.5
 20
88.5
 30
0.0
 40
3.0
100
AcDbArc
 50
45.0
 51
225.0
1001
ACAD
1000
RTLwPs
1070
     139
  0
ARC
  5
134
100
AcDbEntity
  8
0
100
AcDbCircle
 10
360.0
 20
51.0
 30
0.0
 40
3.0
100
AcDbArc
 50
225.0
 51
405.0
1001
ACAD
1000
RTLwPs
1070
     139
  0
ARC
  5
135
100
AcDbEntity
  8
0
100
AcDbCircle
 10
322.5
 20
197.5
 30
0.0
 40
3.0
100
AcDbArc
 50
135.0
 51
315.0
1001
ACAD
1000
RTLwPs
1070
     139
  0
ARC
  5
136
100
AcDbEntity
  8
0
100
AcDbCircle
 10
360.0
 20
235.0
 30
0.0
 40
3.0
100
AcDbArc
 50
315.0
 51
495.0
1001
ACAD
1000
RTLwPs
1070
     139
  0
DIMENSION
  5
174
100
AcDbEntity
  8
0
100
AcDbDimension
  2
*D1
 10
400.0
 20
404.43433916
 30
0.0
 11
200.0
 21
407.55933916
 31
0.0
  3
ISO-25
100
AcDbAlignedDimension
 13
0.0
 23
227.84723627
 33
0.0
 14
400.0
 24
197.5
 34
0.0
100
AcDbRotatedDimension
  0
DIMENSION
  5
54A
100
AcDbEntity
  8
0
100
AcDbDimension
  2
*D2
 10
13.0
 20
301.280478
 30
0.0
 11
6.5
 21
304.405478
 31
0.0
  3
ISO-25
100
AcDbAlignedDimension
 13
0.0
 23
144.5229053
 33
0.0
 14
13.0
 24
273.0
 34
0.0
100
AcDbRotatedDimension
  0
DIMENSION
  5
5D6
100
AcDbEntity
  8
0
100
AcDbDimension
  2
*D3
 10
-61.84643508
 20
-0.00608619
 30
0.0
 11
-64.97143508
 21
142.99695691
 31
0.0
  3
ISO-25
100
AcDbAlignedDimension
 13
-34.34667685
 23
286.0
 33
0.0
 14
-34.34667685
 24
-0.00608619
 34
0.0
 50
90.0
100
AcDbRotatedDimension
  0
DIMENSION
  5
6A3
100
AcDbEntity
  8
0
100
AcDbDimension
  2
*D4
 10
-50.36270479
 20
143.0
 30
0.0
 11
-53.48770479
 21
214.5
 31
0.0
  3
ISO-25
100
AcDbAlignedDimension
 13
25.0
 23
286.0
 33
0.0
 14
-10.0
 24
143.0
 34
0.0
 50
90.0
100
AcDbRotatedDimension
  0
LINE
  5
715
100
AcDbEntity
  8
0
100
AcDbLine
 10
-34.97167685
 20
-0.00608619
 30
0.0
 11
25.0
 21
-0.00608619
 31
0.0
  0
DIMENSION
  5
7B1
100
AcDbEntity
  8
0
100
AcDbDimension
  2
*D5
 10
-0.0
 20
177.01445725
 30
0.0
 11
9.5
 21
180.13945725
 31
0.0
  3
ISO-25
100
AcDbAlignedDimension
 13
19.0
 23
165.5
 33
0.0
 14
-0.0
 24
165.5
 34
0.0
100
AcDbRotatedDimension
  0
DIMENSION
  5
7D2
100
AcDbEntity
  8
0
100
AcDbDimension
  2
*D6
 10
63.0
 20
105.25286535
 30
0.0
 11
31.5
 21
108.37786535
 31
0.0
  3
ISO-25
100
AcDbAlignedDimension
 13
-0.0
 23
106.43692456
 33
0.0
 14
63.0
 24
115.82932104
 34
0.0
100
AcDbRotatedDimension
  0
LINE
  5
7DF
100
AcDbEntity
  8
0
100
AcDbLine
 10
63.0
 20
115.20432104
 30
0.0
 11
63.0
 21
140.5
 31
0.0
  0
DIMENSION
  5
893
100
AcDbEntity
  8
0
100
AcDbDimension
  2
*D7
 10
381.0
 20
1.12419171
 30
0.0
 11
390.5
 21
4.24919171
 31
0.0
  3
ISO-25
100
AcDbAlignedDimension
 13
400.0
 23
37.0
 33
0.0
 14
381.0
 24
51.70517405
 34
0.0
100
AcDbRotatedDimension
  0
DIMENSION
  5
8A0
100
AcDbEntity
  8
0
100
AcDbDimension
  2
*D8
 10
360.0
 20
-14.19570957
 30
0.0
 11
380.0
 21
-11.07070957
 31
0.0
  3
ISO-25
100
AcDbAlignedDimension
 13
400.0
 23
37.0
 33
0.0
 14
360.0
 24
51.0
 34
0.0
100
AcDbRotatedDimension
  0
DIMENSION
  5
8AD
100
AcDbEntity
  8
0
100
AcDbDimension
  2
*D9
 10
322.5
 20
-26.48678343
 30
0.0
 11
361.25
 21
-22.94511676
 31
0.0
  3
ISO-25
100
AcDbAlignedDimension
 13
400.0
 23
79.0
 33
0.0
 14
322.5
 24
89.0
 34
0.0
100
AcDbRotatedDimension
  0
DIMENSION
  5
983
100
AcDbEntity
  8
0
100
AcDbDimension
  2
*D10
 10
400.0
 20
105.25286535
 30
0.0
 11
371.5
 21
108.37786535
 31
0.0
  3
ISO-25
100
AcDbAlignedDimension
 13
343.0
 23
143.0
 33
0.0
 14
400.0
 24
143.0
 34
0.0
100
AcDbRotatedDimension
  0
DIMENSION
  5
A42
100
AcDbEntity
  8
0
100
AcDbDimension
  2
*D11
 10
181.92037442
 20
-38.92986355
 30
0.0
 11
290.96018721
 21
-35.80486355
 31
0.0
  3
ISO-25
100
AcDbAlignedDimension
 13
400.0
 23
25.43247305
 33
0.0
 14
181.92037442
 24
-0.0856734
 34
0.0
100
AcDbRotatedDimension
1001
ACAD
1000
DSTYLE
1002
{
1070
     271
1070
       0
1002
}
  0
DIMENSION
  5
A51
100
AcDbEntity
  8
0
100
AcDbDimension
  2
*D12
 10
49.5
 20
-12.48954014
 30
0.0
 11
24.75
 21
-8.94787348
 31
0.0
  3
ISO-25
100
AcDbAlignedDimension
 13
0.0
 23
13.0
 33
0.0
 14
49.5
 24
40.0
 34
0.0
100
AcDbRotatedDimension
  0
DIMENSION
  5
A5E
100
AcDbEntity
  8
0
100
AcDbDimension
  2
*D13
 10
57.0
 20
-24.52619727
 30
0.0
 11
28.5
 21
-21.40119727
 31
0.0
  3
ISO-25
100
AcDbAlignedDimension
 13
0.0
 23
13.0
 33
0.0
 14
57.0
 24
19.0
 34
0.0
100
AcDbRotatedDimension
  0
DIMENSION
  5
A85
100
AcDbEntity
  8
0
100
AcDbDimension
  2
*D14
 10
-10.78827901
 20
19.0
 30
0.0
 11
-13.91327901
 21
9.49695691
 31
0.0
  3
ISO-25
100
AcDbAlignedDimension
 13
-0.0
 23
-0.00608619
 33
0.0
 14
57.0
 24
19.0
 34
0.0
 50
90.0
100
AcDbRotatedDimension
  0
DIMENSION
  5
A9F
100
AcDbEntity
  8
0
100
AcDbDimension
  2
*D15
 10
-34.87609043
 20
40.0
 30
0.0
 11
-38.00109043
 21
19.99695691
 31
0.0
  3
ISO-25
100
AcDbAlignedDimension
 13
-0.0
 23
-0.00608619
 33
0.0
 14
49.5
 24
40.0
 34
0.0
 50
90.0
100
AcDbRotatedDimension
  0
DIMENSION
  5
ABA
100
AcDbEntity
  8
0
100
AcDbDimension
  2
*D16
 10
13.0
 20
273.0
 30
0.0
 11
-16.49680778
 21
293.63514893
 31
0.0
 70
     132
  3
ISO-25
100
AcDbRadialDimension
 15
2.34784498
 25
280.45195232
 35
0.0
 40
0.0
1001
ACAD
1000
DSTYLE
1002
{
1070
     288
1070
       1
1002
}
  0
DIMENSION
  5
C0D
100
AcDbEntity
  8
0
100
AcDbDimension
  2
*D17
 10
309.6819504
 20
210.3180496
 30
0.0
 11
326.22224171
 21
231.27775829
 31
0.0
 70
       1
  3
ISO-25
100
AcDbAlignedDimension
 13
360.0
 23
235.0
 33
0.0
 14
322.5
 24
197.5
 34
0.0
  0
DIMENSION
  5
C1A
100
AcDbEntity
  8
0
100
AcDbDimension
  2
*D18
 10
314.87115011
 20
185.62850942
 30
0.0
 11
314.95953846
 21
189.95953846
 31
0.0
 70
       1
  3
ISO-25
100
AcDbAlignedDimension
 13
320.37867966
 23
199.62132034
 33
0.0
 14
324.62132034
 24
195.37867966
 34
0.0
  0
LINE
  5
C48
100
AcDbEntity
  8
0
100
AcDbLine
 10
96.78616794
 20
251.60909355
 30
0.0
 11
101.78616794
 21
251.60909355
 31
0.0
  0
LINE
  5
C49
100
AcDbEntity
  8
0
100
AcDbLine
 10
99.28616794
 20
249.10909355
 30
0.0
 11
99.28616794
 21
254.10909355
 31
0.0
  0
LINE
  5
C4A
100
AcDbEntity
  8
0
100
AcDbLine
 10
89.28616794
 20
230.60909355
 30
0.0
 11
94.28616794
 21
230.60909355
 31
0.0
  0
LINE
  5
C4B
100
AcDbEntity
  8
0
100
AcDbLine
 10
91.78616794
 20
228.10909355
 30
0.0
 11
91.78616794
 21
233.10909355
 31
0.0
  0
LINE
  5
C4C
100
AcDbEntity
  8
0
100
AcDbLine
 10
89.28616794
 20
55.39090645
 30
0.0
 11
94.28616794
 21
55.39090645
 31
0.0
  0
LINE
  5
C4D
100
AcDbEntity
  8
0
100
AcDbLine
 10
91.78616794
 20
52.89090645
 30
0.0
 11
91.78616794
 21
57.89090645
 31
0.0
  0
LINE
  5
C4E
100
AcDbEntity
  8
0
100
AcDbLine
 10
96.78616794
 20
34.39090645
 30
0.0
 11
101.78616794
 21
34.39090645
 31
0.0
  0
LINE
  5
C4F
100
AcDbEntity
  8
0
100
AcDbLine
 10
99.28616794
 20
31.89090645
 30
0.0
 11
99.28616794
 21
36.89090645
 31
0.0
  0
LINE
  5
C51
100
AcDbEntity
  8
0
100
AcDbLine
 10
48.47393957
 20
42.81907786
 30
0.0
 11
90.76010751
 21
58.20998431
 31
0.0
1001
ACAD
1000
RTLwPs
1070
     139
  0
LINE
  5
C52
100
AcDbEntity
  8
0
100
AcDbLine
 10
50.52606043
 20
37.18092214
 30
0.0
 11
92.81222837
 21
52.57182859
 31
0.0
1001
ACAD
1000
RTLwPs
1070
     139
  0
LINE
  5
C53
100
AcDbEntity
  8
0
100
AcDbLine
 10
55.97393957
 20
21.81907786
 30
0.0
 11
98.26010751
 21
37.20998431
 31
0.0
1001
ACAD
1000
RTLwPs
1070
     139
  0
LINE
  5
C54
100
AcDbEntity
  8
0
100
AcDbLine
 10
58.02606043
 20
16.18092214
 30
0.0
 11
100.31222837
 21
31.57182859
 31
0.0
1001
ACAD
1000
RTLwPs
1070
     139
  0
LINE
  5
C55
100
AcDbEntity
  8
0
100
AcDbLine
 10
58.02606043
 20
269.81907786
 30
0.0
 11
100.31222837
 21
254.42817141
 31
0.0
1001
ACAD
1000
RTLwPs
1070
     139
  0
LINE
  5
C56
100
AcDbEntity
  8
0
100
AcDbLine
 10
55.97393957
 20
264.18092214
 30
0.0
 11
98.26010751
 21
248.79001569
 31
0.0
1001
ACAD
1000
RTLwPs
1070
     139
  0
LINE
  5
C57
100
AcDbEntity
  8
0
100
AcDbLine
 10
50.52606043
 20
248.81907786
 30
0.0
 11
92.81222837
 21
233.42817141
 31
0.0
1001
ACAD
1000
RTLwPs
1070
     139
  0
LINE
  5
C58
100
AcDbEntity
  8
0
100
AcDbLine
 10
48.47393957
 20
243.18092214
 30
0.0
 11
90.76010751
 21
227.79001569
 31
0.0
1001
ACAD
1000
RTLwPs
1070
     139
  0
ARC
  5
C5B
100
AcDbEntity
  8
0
100
AcDbCircle
 10
99.28616794
 20
251.60909355
 30
0.0
 40
3.0
100
AcDbArc
 50
250.0
 51
430.0
1001
ACAD
1000
RTLwPs
1070
     139
  0
ARC
  5
C5C
100
AcDbEntity
  8
0
100
AcDbCircle
 10
49.5
 20
246.0
 30
0.0
 40
3.0
100
AcDbArc
 50
70.0
 51
250.0
1001
ACAD
1000
RTLwPs
1070
     139
  0
ARC
  5
C5D
100
AcDbEntity
  8
0
100
AcDbCircle
 10
91.78616794
 20
230.60909355
 30
0.0
 40
3.0
100
AcDbArc
 50
250.0
 51
430.0
1001
ACAD
1000
RTLwPs
1070
     139
  0
ARC
  5
C5E
100
AcDbEntity
  8
0
100
AcDbCircle
 10
49.5
 20
40.0
 30
0.0
 40
3.0
100
AcDbArc
 50
110.0
 51
290.0
1001
ACAD
1000
RTLwPs
1070
     139
  0
LINE
  5
C5F
100
AcDbEntity
  8
0
100
AcDbLine
 10
47.0
 20
40.0
 30
0.0
 11
52.0
 21
40.0
 31
0.0
  0
LINE
  5
C60
100
AcDbEntity
  8
0
100
AcDbLine
 10
49.5
 20
37.5
 30
0.0
 11
49.5
 21
42.5
 31
0.0
  0
ARC
  5
C61
100
AcDbEntity
  8
0
100
AcDbCircle
 10
57.0
 20
19.0
 30
0.0
 40
3.0
100
AcDbArc
 50
110.0
 51
290.0
1001
ACAD
1000
RTLwPs
1070
     139
  0
ARC
  5
C62
100
AcDbEntity
  8
0
100
AcDbCircle
 10
91.78616794
 20
55.39090645
 30
0.0
 40
3.0
100
AcDbArc
 50
290.0
 51
470.0
1001
ACAD
1000
RTLwPs
1070
     139
  0
ARC
  5
C63
100
AcDbEntity
  8
0
100
AcDbCircle
 10
99.28616794
 20
34.39090645
 30
0.0
 40
3.0
100
AcDbArc
 50
290.0
 51
470.0
1001
ACAD
1000
RTLwPs
1070
     139
  0
DIMENSION
  5
C65
100
AcDbEntity
  8
0
100
AcDbDimension
  2
*D19
 10
115.74532576
 20
222.05225147
 30
0.0
 11
116.15998983
 21
233.74344288
 31
0.0
 70
       1
  3
ISO-25
100
AcDbAlignedDimension
 13
99.28616794
 23
251.60909355
 33
0.0
 14
91.78616794
 24
230.60909355
 34
0.0
  0
LINE
  5
C73
100
AcDbEntity
  8
0
100
AcDbLine
 10
91.78616794
 20
230.60909355
 30
0.0
 11
46.36295573
 21
230.60909355
 31
0.0
  0
DIMENSION
  5
C74
100
AcDbEntity
  8
0
100
AcDbDimension
  2
*D20
 10
90.76010751
 20
227.79001569
 30
0.0
 11
23.91713907
 21
241.02959769
 31
0.0
 70
       2
  3
ISO-25
100
AcDb2LineAngularDimension
 13
91.78616794
 23
230.60909355
 33
0.0
 14
46.36295573
 24
230.60909355
 34
0.0
 15
48.47393957
 25
243.18092214
 35
0.0
 16
27.66378653
 26
243.727514
 36
0.0
1001
ACAD
1000
DSTYLE
1002
{
1070
     271
1070
       0
1070
     271
1070
       0
1070
     179
1070
       0
1002
}
  0
ARC
  5
C85
100
AcDbEntity
  8
0
100
AcDbCircle
 10
57.0
 20
267.0
 30
0.0
 40
3.0
100
AcDbArc
 50
70.0
 51
250.0
1001
ACAD
1000
RTLwPs
1070
     139
  0
DIMENSION
  5
C86
100
AcDbEntity
  8
0
100
AcDbDimension
  2
*D21
 10
95.07841956
 20
240.04839989
 30
0.0
 11
75.00414854
 21
250.68039256
 31
0.0
 70
       1
  3
ISO-25
100
AcDbAlignedDimension
 13
57.0
 23
267.0
 33
0.0
 14
99.28616794
 24
251.60909355
 34
0.0
  0
DIMENSION
  5
C93
100
AcDbEntity
  8
0
100
AcDbDimension
  2
*D22
 10
37.79099691
 20
247.06919528
 30
0.0
 11
35.8805179
 21
250.95708609
 31
0.0
 70
       1
  3
ISO-25
100
AcDbAlignedDimension
 13
50.52606043
 23
248.81907786
 33
0.0
 14
48.47393957
 24
243.18092214
 34
0.0
  0
DIMENSION
  5
CA2
100
AcDbEntity
  8
0
100
AcDbDimension
  2
*D23
 10
91.78616794
 20
-36.01573262
 30
0.0
 11
45.89308397
 21
-32.47406596
 31
0.0
  3
ISO-25
100
AcDbAlignedDimension
 13
0.0
 23
13.0
 33
0.0
 14
91.78616794
 24
55.39090645
 34
0.0
100
AcDbRotatedDimension
  0
DIMENSION
  5
CAF
100
AcDbEntity
  8
0
100
AcDbDimension
  2
*D24
 10
99.28616794
 20
-48.32596708
 30
0.0
 11
49.64308397
 21
-44.78430041
 31
0.0
  3
ISO-25
100
AcDbAlignedDimension
 13
0.0
 23
13.0
 33
0.0
 14
99.28616794
 24
34.39090645
 34
0.0
100
AcDbRotatedDimension
  0
DIMENSION
  5
CBC
100
AcDbEntity
  8
0
100
AcDbDimension
  2
*D25
 10
-22.83218472
 20
34.39090645
 30
0.0
 11
-26.37385139
 21
17.19241013
 31
0.0
  3
ISO-25
100
AcDbAlignedDimension
 13
-0.0
 23
-0.00608619
 33
0.0
 14
99.28616794
 24
34.39090645
 34
0.0
 50
90.0
100
AcDbRotatedDimension
  0
DIMENSION
  5
CC9
100
AcDbEntity
  8
0
100
AcDbDimension
  2
*D26
 10
-46.91999613
 20
55.39090645
 30
0.0
 11
-50.4616628
 21
27.69241013
 31
0.0
  3
ISO-25
100
AcDbAlignedDimension
 13
-0.0
 23
-0.00608619
 33
0.0
 14
91.78616794
 24
55.39090645
 34
0.0
 50
90.0
100
AcDbRotatedDimension
  0
MTEXT
  5
CE1
100
AcDbEntity
  8
0
100
AcDbMText
 10
404.60015346
 20
195.86704645
 30
0.0
 40
2.5
 41
51.984
 71
       1
 72
       5
  1
Pliegue
1001
ACAD
1000
MTEXTBEGIN
1070
      73
1070
       1
1070
      44
1040
1.0
1070
      74
1070
       0
1000
MTEXTEND
1000
MTEXTBEGIN
1070
      73
1070
       1
1070
      44
1040
1.0
1070
      74
1070
       0
1000
MTEXTEND
  0
MTEXT
  5
CE2
100
AcDbEntity
  8
0
100
AcDbMText
 10
402.46573662
 20
162.40956353
 30
0.0
 40
2.5
 41
32.757
 71
       1
 72
       5
  1
Pliegue
1001
ACAD
1000
MTEXTBEGIN
1070
      73
1070
       1
1070
      44
1040
1.0
1070
      74
1070
       0
1000
MTEXTEND
1000
MTEXTBEGIN
1070
      73
1070
       1
1070
      44
1040
1.0
1070
      74
1070
       0
1000
MTEXTEND
  0
MTEXT
  5
CE3
100
AcDbEntity
  8
0
100
AcDbMText
 10
403.60517573
 20
135.1740014
 30
0.0
 40
2.5
 41
53.7811
 71
       1
 72
       5
  1
Pliegue
1001
ACAD
1000
MTEXTBEGIN
1070
      73
1070
       1
1070
      44
1040
1.0
1070
      74
1070
       0
1000
MTEXTEND
1000
MTEXTBEGIN
1070
      73
1070
       1
1070
      44
1040
1.0
1070
      74
1070
       0
1000
MTEXTEND
  0
MTEXT
  5
CE4
100
AcDbEntity
  8
0
100
AcDbMText
 10
403.66598779
 20
102.08919672
 30
0.0
 40
2.5
 41
29.9086
 71
       1
 72
       5
  1
Pliegue
1001
ACAD
1000
MTEXTBEGIN
1070
      73
1070
       1
1070
      44
1040
1.0
1070
      74
1070
       0
1000
MTEXTEND
1000
MTEXTBEGIN
1070
      73
1070
       1
1070
      44
1040
1.0
1070
      74
1070
       0
1000
MTEXTEND
  0
MTEXT
  5
CE7
100
AcDbEntity
  8
0
100
AcDbMText
 10
409.76754534
 20
147.98176807
 30
0.0
 40
2.5
 41
31.3328
 71
       1
 72
       5
  1
Centro
1001
ACAD
1000
MTEXTBEGIN
1070
      73
1070
       1
1070
      44
1040
1.0
1070
      74
1070
       0
1000
MTEXTEND
1000
MTEXTBEGIN
1070
      73
1070
       1
1070
      44
1040
1.0
1070
      74
1070
       0
1000
MTEXTEND
  0
LWPOLYLINE
  5
D7C
100
AcDbEntity
  8
0
100
AcDbPolyline
 90
        4
 70
       1
 10
413.06587445
 20
219.80964377
 10
413.06587445
 20
410.83124609
 10
478.99754511
 20
410.83124609
 10
478.99754511
 20
219.80964377
  0
LINE
  5
D7D
100
AcDbEntity
  8
0
100
AcDbLine
 10
446.03170978
 20
219.80964377
 30
0.0
 11
446.03170978
 21
410.83124609
 31
0.0
  0
LINE
  5
D7E
100
AcDbEntity
  8
0
100
AcDbLine
 10
446.03170978
 20
219.80964377
 30
0.0
 11
446.03170978
 21
249.34906602
 31
0.0
  0
LINE
  5
D7F
100
AcDbEntity
  8
0
100
AcDbLine
 10
446.03170978
 20
249.34906602
 30
0.0
 11
478.99754511
 21
249.34906602
 31
0.0
  0
LINE
  5
D80
100
AcDbEntity
  8
0
100
AcDbLine
 10
478.99754511
 20
249.34906602
 30
0.0
 11
478.99754511
 21
378.33788085
 31
0.0
  0
LINE
  5
D81
100
AcDbEntity
  8
0
100
AcDbLine
 10
478.99754511
 20
378.33788085
 30
0.0
 11
446.03170978
 21
378.33788085
 31
0.0
  0
LINE
  5
D82
100
AcDbEntity
  8
0
100
AcDbLine
 10
446.03170978
 20
378.33788085
 30
0.0
 11
446.03170978
 21
249.34906602
 31
0.0
  0
LINE
  5
D83
100
AcDbEntity
  8
0
100
AcDbLine
 10
446.03170978
 20
249.34906602
 30
0.0
 11
413.06587445
 21
249.34906602
 31
0.0
  0
LINE
  5
D84
100
AcDbEntity
  8
0
100
AcDbLine
 10
429.54879211
 20
249.34906602
 30
0.0
 11
429.54879211
 21
410.83124609
 31
0.0
  0
LINE
  5
D85
100
AcDbEntity
  8
0
100
AcDbLine
 10
429.54879211
 20
410.83124609
 30
0.0
 11
429.54879211
 21
219.80964377
 31
0.0
  0
LINE
  5
D86
100
AcDbEntity
  8
0
100
AcDbLine
 10
462.51462744
 20
249.34906602
 30
0.0
 11
462.51462744
 21
219.80964377
 31
0.0
  0
LINE
  5
D87
100
AcDbEntity
  8
0
100
AcDbLine
 10
462.51462744
 20
378.33788085
 30
0.0
 11
462.51462744
 21
410.83124609
 31
0.0
  0
MTEXT
  5
D88
100
AcDbEntity
  8
0
100
AcDbMText
 10
420.44768983
 20
222.88725324
 30
0.0
 40
5.0
 41
15.2058
 71
       1
 72
       5
  1
Fecha
 11
0.0
 21
1.0
 31
0.0
1001
ACAD
1000
MTEXTBEGIN
1070
      73
1070
       1
1070
      44
1040
1.0
1070
      74
1070
       0
1000
MTEXTEND
1000
MTEXTBEGIN
1070
      73
1070
       1
1070
      44
1040
1.0
1070
      74
1070
       0
1000
MTEXTEND
  0
MTEXT
  5
D8A
100
AcDbEntity
  8
0
100
AcDbMText
 10
436.33160805
 20
223.11538014
 30
0.0
 40
2.5
 41
13.9518
 71
       1
 72
       5
  1
03/02/2001
 11
0.0
 21
1.0
 31
0.0
1001
ACAD
1000
MTEXTBEGIN
1070
      73
1070
       1
1070
      44
1040
1.0
1070
      74
1070
       0
1000
MTEXTEND
1000
MTEXTBEGIN
1070
      73
1070
       1
1070
      44
1040
1.0
1070
      74
1070
       0
1000
MTEXTEND
  0
MTEXT
  5
D8C
100
AcDbEntity
  8
0
100
AcDbMText
 10
415.56763052
 20
251.40380224
 30
0.0
 40
2.5
 41
10.2587
 71
       1
 72
       5
  1
Dibujado por:
 11
0.0
 21
1.0
 31
0.0
1001
ACAD
1000
MTEXTBEGIN
1070
      73
1070
       1
1070
      44
1040
1.0
1070
      74
1070
       0
1000
MTEXTEND
1000
MTEXTBEGIN
1070
      73
1070
       1
1070
      44
1040
1.0
1070
      74
1070
       0
1000
MTEXTEND
  0
MTEXT
  5
D8D
100
AcDbEntity
  8
0
100
AcDbMText
 10
421.00670878
 20
263.76226324
 30
0.0
 40
5.0
 41
118.3854
 71
       1
 72
       5
  1
Raúl Fernández
 11
0.0
 21
1.0
 31
0.0
1001
ACAD
1000
MTEXTBEGIN
1070
      73
1070
       1
1070
      44
1040
1.0
1070
      74
1070
       0
1000
MTEXTEND
1000
MTEXTBEGIN
1070
      73
1070
       1
1070
      44
1040
1.0
1070
      74
1070
       0
1000
MTEXTEND
  0
MTEXT
  5
D8E
100
AcDbEntity
  8
0
100
AcDbMText
 10
452.18322338
 20
222.91020364
 30
0.0
 40
4.0
 41
27.2596
 71
       1
 72
       5
  1
Escala
 11
0.0
 21
1.0
 31
0.0
1001
ACAD
1000
MTEXTBEGIN
1070
      73
1070
       1
1070
      44
1040
1.0
1070
      74
1070
       0
1000
MTEXTEND
1000
MTEXTBEGIN
1070
      73
1070
       1
1070
      44
1040
1.0
1070
      74
1070
       0
1000
MTEXTEND
  0
MTEXT
  5
D91
100
AcDbEntity
  8
0
100
AcDbMText
 10
467.70432273
 20
227.83438032
 30
0.0
 40
7.0
 41
17.2346
 71
       1
 72
       5
  1
1:1
 11
0.0
 21
1.0
 31
0.0
1001
ACAD
1000
MTEXTBEGIN
1070
      73
1070
       1
1070
      44
1040
1.0
1070
      74
1070
       0
1000
MTEXTEND
1000
MTEXTBEGIN
1070
      73
1070
       1
1070
      44
1040
1.0
1070
      74
1070
       0
1000
MTEXTEND
  0
MTEXT
  5
D93
100
AcDbEntity
  8
0
100
AcDbMText
 10
452.3255406
 20
381.71481891
 30
0.0
 40
2.5
 41
25.2364
 71
       1
 72
       5
  1
Dimensiones
 11
0.0
 21
1.0
 31
0.0
1001
ACAD
1000
MTEXTBEGIN
1070
      73
1070
       1
1070
      44
1040
1.0
1070
      74
1070
       0
1000
MTEXTEND
1000
MTEXTBEGIN
1070
      73
1070
       1
1070
      44
1040
1.0
1070
      74
1070
       0
1000
MTEXTEND
  0
MTEXT
  5
D95
100
AcDbEntity
  8
0
100
AcDbMText
 10
468.52452485
 20
383.56138459
 30
0.0
 40
3.0
 41
23.1847
 71
       1
 72
       5
  1
Milímetros
 11
0.0
 21
1.0
 31
0.0
1001
ACAD
1000
MTEXTBEGIN
1070
      73
1070
       1
1070
      44
1040
1.0
1070
      74
1070
       0
1000
MTEXTEND
1000
MTEXTBEGIN
1070
      73
1070
       1
1070
      44
1040
1.0
1070
      74
1070
       0
1000
MTEXTEND
  0
MTEXT
  5
D98
100
AcDbEntity
  8
0
100
AcDbMText
 10
433.25585125
 20
254.50698914
 30
0.0
 40
2.5
 41
73.45226215
 71
       1
 72
       5
  1
Material: Acero inoxidable 316
 11
0.0
 21
1.0
 31
0.0
1001
ACAD
1000
MTEXTBEGIN
1070
      73
1070
       1
1070
      44
1040
1.0
1070
      74
1070
       0
1000
MTEXTEND
1000
MTEXTBEGIN
1070
      73
1070
       1
1070
      44
1040
1.0
1070
      74
1070
       0
1000
MTEXTEND
  0
MTEXT
  5
D99
100
AcDbEntity
  8
0
100
AcDbMText
 10
440.63766663
 20
254.7121626
 30
0.0
 40
2.5
 41
153.47009168
 71
       1
 72
       5
  1
Método de fabricación: Corte por plasma y plegado
 11
0.0
 21
1.0
 31
0.0
1001
ACAD
1000
MTEXTBEGIN
1070
      73
1070
       1
1070
      44
1040
1.0
1070
      74
1070
       0
1000
MTEXTEND
1000
MTEXTBEGIN
1070
      73
1070
       1
1070
      44
1040
1.0
1070
      74
1070
       0
1000
MTEXTEND
  0
MTEXT
  5
D9A
100
AcDbEntity
  8
0
100
AcDbMText
 10
452.53059137
 20
275.63990244
 30
0.0
 40
7.0
 41
108.1267
 71
       1
 72
       5
  1
Back Plate
 11
0.0
 21
1.0
 31
0.0
1001
ACAD
1000
MTEXTBEGIN
1070
      73
1070
       1
1070
      44
1040
1.0
1070
      74
1070
       0
1000
MTEXTEND
1000
MTEXTBEGIN
1070
      73
1070
       1
1070
      44
1040
1.0
1070
      74
1070
       0
1000
MTEXTEND
  0
MTEXT
  5
D9D
100
AcDbEntity
  8
0
100
AcDbMText
 10
470.78007953
 20
281.58994793
 30
0.0
 40
2.5
 41
115.1026
 71
       1
 72
       5
  1
Soporte arnés y ala
 11
0.0
 21
1.0
 31
0.0
1001
ACAD
1000
MTEXTBEGIN
1070
      73
1070
       1
1070
      44
1040
1.0
1070
      74
1070
       0
1000
MTEXTEND
1000
MTEXTBEGIN
1070
      73
1070
       1
1070
      44
1040
1.0
1070
      74
1070
       0
1000
MTEXTEND
  0
DIMENSION
  5
DB1
100
AcDbEntity
  8
0
100
AcDbDimension
  2
*D27
 10
343.0
 20
105.25286535
 30
0.0
 11
201.75
 21
105.25286535
 31
0.0
 70
     128
  3
ISO-25
100
AcDbAlignedDimension
 13
63.0
 23
118.18274711
 33
0.0
 14
343.0
 24
117.76608045
 34
0.0
100
AcDbRotatedDimension
  0
LWPOLYLINE
  5
EF7
100
AcDbEntity
  8
0
100
AcDbPolyline
 90
        3
 70
       0
 10
16.0
 20
120.5
 10
16.0
 20
165.5
 42
-1.0
 10
22.0
 20
165.5
 42
0.02789549
1001
ACAD
1000
RTLwPs
1070
     139
  0
LWPOLYLINE
  5
EF8
100
AcDbEntity
  8
0
100
AcDbPolyline
 90
        3
 70
       0
 10
22.0
 20
165.5
 10
22.0
 20
120.5
 42
-1.0
 10
16.0
 20
120.5
 42
0.70746357
1001
ACAD
1000
RTLwPs
1070
     139
  0
LINE
  5
EF9
100
AcDbEntity
  8
0
100
AcDbLine
 10
16.5
 20
165.5
 30
0.0
 11
21.5
 21
165.5
 31
0.0
  0
LINE
  5
EFA
100
AcDbEntity
  8
0
100
AcDbLine
 10
19.0
 20
163.0
 30
0.0
 11
19.0
 21
168.0
 31
0.0
  0
LINE
  5
EFB
100
AcDbEntity
  8
0
100
AcDbLine
 10
16.5
 20
120.5
 30
0.0
 11
21.5
 21
120.5
 31
0.0
  0
LINE
  5
EFC
100
AcDbEntity
  8
0
100
AcDbLine
 10
19.0
 20
118.0
 30
0.0
 11
19.0
 21
123.0
 31
0.0
  0
DIMENSION
  5
EFD
100
AcDbEntity
  8
0
100
AcDbDimension
  2
*D28
 10
35.0737705
 20
120.5
 30
0.0
 11
31.9487705
 21
143.0
 31
0.0
  3
ISO-25
100
AcDbAlignedDimension
 13
19.0
 23
165.5
 33
0.0
 14
19.0
 24
120.5
 34
0.0
 50
90.0
100
AcDbRotatedDimension
  0
DIMENSION
  5
F24
100
AcDbEntity
  8
0
100
AcDbDimension
  2
*D29
 10
22.0
 20
145.5
 30
0.0
 11
19.0
 21
148.625
 31
0.0
  3
ISO-25
100
AcDbAlignedDimension
 13
16.0
 23
165.5
 33
0.0
 14
22.0
 24
165.5
 34
0.0
100
AcDbRotatedDimension
  0
LWPOLYLINE
  5
F9A
100
AcDbEntity
  8
0
100
AcDbPolyline
 90
        5
 70
       0
 10
384.0
 20
229.0
 10
384.0
 20
176.0
 42
-1.0
 10
378.0
 20
176.0
 10
378.0
 20
229.0
 42
-1.0
 10
384.0
 20
229.0
 42
0.54344173
1001
ACAD
1000
RTLwPs
1070
     139
  0
LINE
  5
F9B
100
AcDbEntity
  8
0
100
AcDbLine
 10
378.5
 20
176.0
 30
0.0
 11
383.5
 21
176.0
 31
0.0
  0
LINE
  5
F9C
100
AcDbEntity
  8
0
100
AcDbLine
 10
381.0
 20
173.5
 30
0.0
 11
381.0
 21
178.5
 31
0.0
  0
LWPOLYLINE
  5
F9E
100
AcDbEntity
  8
0
100
AcDbPolyline
 90
        3
 70
       0
 10
384.0
 20
110.0
 10
384.0
 20
57.0
 42
-1.0
 10
378.0
 20
57.0
 42
0.0548694
1001
ACAD
1000
RTLwPs
1070
     139
  0
LWPOLYLINE
  5
F9F
100
AcDbEntity
  8
0
100
AcDbPolyline
 90
        3
 70
       0
 10
378.0
 20
57.0
 10
378.0
 20
110.0
 42
-1.0
 10
384.0
 20
110.0
 42
0.09373246
1001
ACAD
1000
RTLwPs
1070
     139
  0
LINE
  5
FA0
100
AcDbEntity
  8
0
100
AcDbLine
 10
378.5
 20
110.0
 30
0.0
 11
383.5
 21
110.0
 31
0.0
  0
LINE
  5
FA1
100
AcDbEntity
  8
0
100
AcDbLine
 10
381.0
 20
107.5
 30
0.0
 11
381.0
 21
112.5
 31
0.0
  0
DIMENSION
  5
10C6
100
AcDbEntity
  8
0
100
AcDbDimension
  2
*D30
 10
392.8431643
 20
176.0
 30
0.0
 11
389.7181643
 21
202.5
 31
0.0
  3
ISO-25
100
AcDbAlignedDimension
 13
381.0
 23
229.0
 33
0.0
 14
381.0
 24
176.0
 34
0.0
 50
90.0
100
AcDbRotatedDimension
  0
LWPOLYLINE
  5
114A
100
AcDbEntity
  8
0
100
AcDbPolyline
 90
        4
 70
       1
 10
338.75
 20
138.75
 10
347.25
 20
138.75
 10
347.25
 20
147.25
 10
338.75
 20
147.25
1001
ACAD
1000
RTLwPs
1070
     139
  0
LWPOLYLINE
  5
114B
100
AcDbEntity
  8
0
100
AcDbPolyline
 90
        4
 70
       1
 10
58.75
 20
138.75
 10
67.25
 20
138.75
 10
67.25
 20
147.25
 10
58.75
 20
147.25
1001
ACAD
1000
RTLwPs
1070
     139
  0
LINE
  5
114C
100
AcDbEntity
  8
0
100
AcDbLine
 10
63.0
 20
143.0
 30
0.0
 11
104.0
 21
143.0
 31
0.0
  0
DIMENSION
  5
115C
100
AcDbEntity
  8
0
100
AcDbDimension
  2
*D31
 10
67.25
 20
152.43203604
 30
0.0
 11
75.79166667
 21
155.97370271
 31
0.0
  3
ISO-25
100
AcDbAlignedDimension
 13
58.75
 23
147.25
 33
0.0
 14
67.25
 24
147.25
 34
0.0
100
AcDbRotatedDimension
  0
DIMENSION
  5
1178
100
AcDbEntity
  8
0
100
AcDbDimension
  2
*D32
 10
50.49893258
 20
147.25
 30
0.0
 11
46.95726591
 21
155.79166667
 31
0.0
  3
ISO-25
100
AcDbAlignedDimension
 13
67.25
 23
138.75
 33
0.0
 14
67.25
 24
147.25
 34
0.0
 50
270.0
100
AcDbRotatedDimension
  0
MLINE
  5
11D8
100
AcDbEntity
  8
0
100
AcDbMline
  2
STANDARD
340
18
 40
3.0
 70
       0
 71
       1
 72
       6
 73
       2
 10
-142.8710001116294279
 20
0.4216449382469039
 30
0.0
210
0.0
220
0.0
230
1.0
 11
-142.8710001116294279
 21
0.4216449382469039
 31
0.0
 12
0.1564344650402309
 22
0.9876883405951378
 32
0.0
 13
-0.9876883405951378
 23
0.156434465040231
 33
0.0
 74
       2
 41
0.0
 41
0.0
 75
       0
 74
       2
 41
-3.0
 41
0.0
 75
       0
 11
-127.8532914677672636
 21
95.2397256353801254
 31
0.0
 12
0.5446390350150272
 22
0.8386705679454241
 32
0.0
 13
-0.9335804264972016
 23
0.3583679495453007
 33
0.0
 74
       2
 41
0.0
 41
0.0
 75
       0
 74
       2
 41
-3.0670217845950876
 41
0.0
 75
       0
 11
-109.8802033122713624
 21
122.915854377579123
 31
0.0
 12
0.0
 22
1.0
 32
0.0
 13
-0.9588197348681931
 23
0.2840153447039226
 33
0.0
 74
       2
 41
0.0
 41
0.0
 75
       0
 74
       2
 41
-3.1288467382374057
 41
0.0
 75
       0
 11
-109.8802033122713624
 21
150.9158543775791372
 31
0.0
 12
-0.5446390350150274
 22
0.8386705679454239
 32
0.0
 13
-0.9588197348681933
 23
-0.2840153447039224
 33
0.0
 74
       2
 41
0.0
 41
0.0
 75
       0
 74
       2
 41
-3.1288467382374061
 41
0.0
 75
       0
 11
-127.8532914677672636
 21
178.5919831197781207
 31
0.0
 12
-0.1564344650402309
 22
0.9876883405951379
 32
0.0
 13
-0.9335804264972019
 23
-0.3583679495453004
 33
0.0
 74
       2
 41
0.0
 41
0.0
 75
       0
 74
       2
 41
-3.067021784595088
 41
0.0
 75
       0
 11
-142.8710001116294279
 21
273.4100638169113608
 31
0.0
 12
-0.1564344650402309
 22
0.9876883405951379
 32
0.0
 13
-0.9876883405951378
 23
-0.1564344650402307
 33
0.0
 74
       2
 41
0.0
 41
0.0
 75
       0
 74
       2
 41
-3.0
 41
0.0
 75
       0
  0
LINE
  5
11D9
100
AcDbEntity
  8
0
100
AcDbLine
 10
-142.87100011
 20
273.41006382
 30
0.0
 11
-139.90793509
 21
273.87936721
 31
0.0
  0
LINE
  5
11DA
100
AcDbEntity
  8
0
100
AcDbLine
 10
-142.87100011
 20
0.42164494
 30
0.0
 11
-139.90793509
 21
-0.04765846
 31
0.0
  0
DIMENSION
  5
11DB
100
AcDbEntity
  8
0
100
AcDbDimension
  2
*D33
 10
-124.98997996
 20
94.14060333
 30
0.0
 11
-101.72613699
 21
85.21045069
 31
0.0
 70
       2
  3
ISO-25
100
AcDb2LineAngularDimension
 13
-124.98997996
 23
94.14060333
 33
0.0
 14
-106.88020331
 24
122.02721389
 34
0.0
 15
-139.90793509
 25
-0.04765846
 35
0.0
 16
-105.86405278
 26
73.63055747
 36
0.0
1001
ACAD
1000
DSTYLE
1002
{
1070
     271
1070
       0
1070
     271
1070
       0
1070
     179
1070
       0
1002
}
  0
DIMENSION
  5
11E8
100
AcDbEntity
  8
0
100
AcDbDimension
  2
*D34
 10
-109.88020331
 20
122.91585438
 30
0.0
 11
-133.57926464
 21
129.93583616
 31
0.0
 70
       2
  3
ISO-25
100
AcDb2LineAngularDimension
 13
-109.88020331
 23
122.91585438
 33
0.0
 14
-109.88020331
 24
150.91585438
 34
0.0
 15
-127.85329147
 25
95.23972564
 35
0.0
 16
-126.17582483
 26
137.08142205
 36
0.0
1001
ACAD
1000
DSTYLE
1002
{
1070
     271
1070
       0
1070
     271
1070
       0
1070
     179
1070
       0
1002
}
  0
DIMENSION
  5
122A
100
AcDbEntity
  8
0
100
AcDbDimension
  2
*D35
 10
-82.12942934
 20
122.91585438
 30
0.0
 11
-85.25442934
 21
136.91585438
 31
0.0
 70
       1
  3
ISO-25
100
AcDbAlignedDimension
 13
-109.88020331
 23
150.91585438
 33
0.0
 14
-109.88020331
 24
122.91585438
 34
0.0
  0
DIMENSION
  5
1237
100
AcDbEntity
  8
0
100
AcDbDimension
  2
*D36
 10
-82.14643871
 20
168.9263717
 30
0.0
 11
-88.51213726
 21
184.46643306
 31
0.0
 70
       1
  3
ISO-25
100
AcDbAlignedDimension
 13
-127.85329147
 23
178.59198312
 33
0.0
 14
-109.88020331
 24
150.91585438
 34
0.0
  0
DIMENSION
  5
1244
100
AcDbEntity
  8
0
100
AcDbDimension
  2
*D37
 10
-158.25702979
 20
173.77650404
 30
0.0
 11
-162.67935805
 21
221.67440209
 31
0.0
 70
       1
  3
ISO-25
100
AcDbAlignedDimension
 13
-142.87100011
 23
273.41006382
 33
0.0
 14
-127.85329147
 24
178.59198312
 34
0.0
  0
LWPOLYLINE
  5
1251
100
AcDbEntity
  8
0
100
AcDbPolyline
 90
        4
 70
       1
 10
94.75
 20
147.25
 10
94.75
 20
138.75
 10
103.25
 20
138.75
 10
103.25
 20
147.25
  0
LWPOLYLINE
  5
1252
100
AcDbEntity
  8
0
100
AcDbPolyline
 90
        4
 70
       1
 10
374.75
 20
147.25
 10
374.75
 20
138.75
 10
383.25
 20
138.75
 10
383.25
 20
147.25
  0
LINE
  5
1253
100
AcDbEntity
  8
0
100
AcDbLine
 10
99.0
 20
146.06643019
 30
0.0
 11
99.0
 21
140.11420803
 31
0.0
  0
LINE
  5
1262
100
AcDbEntity
  8
0
100
AcDbLine
 10
379.0
 20
145.84439851
 30
0.0
 11
379.0
 21
140.23331208
 31
0.0
  0
DIMENSION
  5
1263
100
AcDbEntity
  8
0
100
AcDbDimension
  2
*D38
 10
99.0
 20
117.14108045
 30
0.0
 11
81.0
 21
120.26608045
 31
0.0
  3
ISO-25
100
AcDbAlignedDimension
 13
63.0
 23
128.60383671
 33
0.0
 14
99.0
 24
138.75
 34
0.0
100
AcDbRotatedDimension
  0
DIMENSION
  5
1279
100
AcDbEntity
  8
0
100
AcDbDimension
  2
*D39
 10
379.0
 20
117.14108045
 30
0.0
 11
361.0
 21
120.26608045
 31
0.0
  3
ISO-25
100
AcDbAlignedDimension
 13
343.0
 23
138.75
 33
0.0
 14
379.0
 24
138.75
 34
0.0
100
AcDbRotatedDimension
  0
LINE
  5
1296
100
AcDbEntity
  8
0
100
AcDbLine
 10
381.0
 20
51.0
 30
0.0
 11
381.0
 21
39.0
 31
0.0
  0
LINE
  5
12CE
100
AcDbEntity
  8
0
100
AcDbLine
 10
340.5
 20
79.0
 30
0.0
 11
345.5
 21
79.0
 31
0.0
  0
LINE
  5
12CF
100
AcDbEntity
  8
0
100
AcDbLine
 10
343.0
 20
76.5
 30
0.0
 11
343.0
 21
81.5
 31
0.0
  0
LINE
  5
12D5
100
AcDbEntity
  8
0
100
AcDbLine
 10
181.92037442
 20
-0.0856734
 30
0.0
 11
350.56755005
 21
22.50458261
 31
0.0
  0
LINE
  5
12D6
100
AcDbEntity
  8
0
100
AcDbLine
 10
182.545
 20
286.0
 30
0.0
 11
350.85840729
 21
263.45569444
 31
0.0
  0
LINE
  5
12D7
100
AcDbEntity
  8
0
100
AcDbLine
 10
400.0
 20
207.0
 30
0.0
 11
400.0
 21
79.0
 31
0.0
  0
DIMENSION
  5
12F4
100
AcDbEntity
  8
0
100
AcDbDimension
  2
*D40
 10
435.81953125
 20
110.0
 30
0.0
 11
432.69453125
 21
126.5
 31
0.0
  3
ISO-25
100
AcDbAlignedDimension
 13
410.0
 23
143.0
 33
0.0
 14
381.0
 24
110.0
 34
0.0
 50
90.0
100
AcDbRotatedDimension
  0
DIMENSION
  5
1301
100
AcDbEntity
  8
0
100
AcDbDimension
  2
*D41
 10
448.92493181
 20
88.5
 30
0.0
 11
445.38326514
 21
115.75
 31
0.0
  3
ISO-25
100
AcDbAlignedDimension
 13
410.0
 23
143.0
 33
0.0
 14
325.0
 24
88.5
 34
0.0
 50
90.0
100
AcDbRotatedDimension
  0
DIMENSION
  5
130E
100
AcDbEntity
  8
0
100
AcDbDimension
  2
*D42
 10
460.4321127
 20
57.0
 30
0.0
 11
457.3071127
 21
100.0
 31
0.0
  3
ISO-25
100
AcDbAlignedDimension
 13
410.0
 23
143.0
 33
0.0
 14
381.0
 24
57.0
 34
0.0
 50
90.0
100
AcDbRotatedDimension
  0
DIMENSION
  5
131B
100
AcDbEntity
  8
0
100
AcDbDimension
  2
*D43
 10
471.30000712
 20
51.0
 30
0.0
 11
468.17500712
 21
97.0
 31
0.0
  3
ISO-25
100
AcDbAlignedDimension
 13
410.0
 23
143.0
 33
0.0
 14
360.0
 24
51.0
 34
0.0
 50
90.0
100
AcDbRotatedDimension
  0
LINE
  5
134C
100
AcDbEntity
  8
0
 62
       1
100
AcDbLine
 10
-10.0
 20
190.0
 30
0.0
 11
407.54547345
 21
190.0
 31
0.0
  0
LINE
  5
134D
100
AcDbEntity
  8
0
 62
       3
100
AcDbLine
 10
-10.0
 20
157.0
 30
0.0
 11
407.54547345
 21
157.0
 31
0.0
  0
LINE
  5
1357
100
AcDbEntity
  8
0
 62
       1
100
AcDbLine
 10
-10.0
 20
96.0
 30
0.0
 11
407.54547345
 21
96.0
 31
0.0
  0
LINE
  5
1358
100
AcDbEntity
  8
0
 62
       3
100
AcDbLine
 10
-10.0
 20
129.0
 30
0.0
 11
407.54547345
 21
129.0
 31
0.0
  0
DIMENSION
  5
138F
100
AcDbEntity
  8
0
100
AcDbDimension
  2
*D44
 10
174.9797349
 20
286.0
 30
0.0
 11
171.8547349
 21
238.0
 31
0.0
  3
ISO-25
100
AcDbAlignedDimension
 13
181.92
 23
190.0
 33
0.0
 14
176.73698719
 24
286.0
 34
0.0
 50
90.0
100
AcDbRotatedDimension
  0
DIMENSION
  5
139C
100
AcDbEntity
  8
0
100
AcDbDimension
  2
*D45
 10
174.9797349
 20
157.0
 30
0.0
 11
171.8547349
 21
173.5
 31
0.0
  3
ISO-25
100
AcDbAlignedDimension
 13
181.295
 23
190.0
 33
0.0
 14
181.295
 24
157.0
 34
0.0
 50
90.0
100
AcDbRotatedDimension
  0
DIMENSION
  5
13A9
100
AcDbEntity
  8
0
100
AcDbDimension
  2
*D46
 10
174.9797349
 20
129.0
 30
0.0
 11
171.8547349
 21
143.0
 31
0.0
  3
ISO-25
100
AcDbAlignedDimension
 13
180.67
 23
157.0
 33
0.0
 14
180.67
 24
129.0
 34
0.0
 50
90.0
100
AcDbRotatedDimension
  0
DIMENSION
  5
13BF
100
AcDbEntity
  8
0
100
AcDbDimension
  2
*D47
 10
174.9797349
 20
96.0
 30
0.0
 11
171.8547349
 21
112.5
 31
0.0
  3
ISO-25
100
AcDbAlignedDimension
 13
180.045
 23
129.0
 33
0.0
 14
180.045
 24
96.0
 34
0.0
 50
90.0
100
AcDbRotatedDimension
  0
DIMENSION
  5
13CC
100
AcDbEntity
  8
0
100
AcDbDimension
  2
*D48
 10
174.9797349
 20
96.0
 30
0.0
 11
171.8547349
 21
47.9571633
 31
0.0
  3
ISO-25
100
AcDbAlignedDimension
 13
181.92037442
 23
-0.0856734
 33
0.0
 14
181.92037442
 24
96.0
 34
0.0
 50
90.0
100
AcDbRotatedDimension
1001
ACAD
1000
DSTYLE
1002
{
1070
     271
1070
       0
1002
}
  0
DIMENSION
  5
1406
100
AcDbEntity
  8
0
100
AcDbDimension
  2
*D49
 10
325.0
 20
197.5
 30
0.0
 11
357.97659259
 21
210.43752648
 31
0.0
 70
       2
  3
ISO-25
100
AcDb2LineAngularDimension
 13
362.12132034
 23
232.87867966
 33
0.0
 14
324.62132034
 24
195.37867966
 34
0.0
 15
320.0
 25
197.5
 35
0.0
 16
356.37954966
 26
205.44118583
 36
0.0
1001
ACAD
1000
DSTYLE
1002
{
1070
     271
1070
       0
1070
     271
1070
       0
1070
     179
1070
       0
1002
}
  0
MTEXT
  5
1431
100
AcDbEntity
  8
0
100
AcDbMText
 10
416.21091283
 20
340.37560369
 30
0.0
 40
2.5
 41
14.7538
 71
       1
 72
       5
  1
Comprobado\Ppor:
 11
0.0
 21
1.0
 31
0.0
1001
ACAD
1000
MTEXTBEGIN
1070
      73
1070
       1
1070
      44
1040
1.0
1070
      74
1070
       0
1000
MTEXTEND
1000
MTEXTBEGIN
1070
      73
1070
       1
1070
      44
1040
1.0
1070
      74
1070
       0
1000
MTEXTEND
  0
MTEXT
  5
1432
100
AcDbEntity
  8
0
100
AcDbMText
 10
421.5403862
 20
350.50770133
 30
0.0
 40
5.0
 41
58.83726076
 71
       1
 72
       5
  1
Josep Guarro
 11
0.0
 21
1.0
 31
0.0
1001
ACAD
1000
MTEXTBEGIN
1070
      73
1070
       1
1070
      44
1040
1.0
1070
      74
1070
       0
1000
MTEXTEND
1000
MTEXTBEGIN
1070
      73
1070
       1
1070
      44
1040
1.0
1070
      74
1070
       0
1000
MTEXTEND
  0
LINE
  5
1435
100
AcDbEntity
  8
0
100
AcDbLine
 10
416.38856187
 20
335.75394622
 30
0.0
 11
426.51456043
 21
335.75394622
 31
0.0
  0
LINE
  5
1436
100
AcDbEntity
  8
0
100
AcDbLine
 10
426.51456043
 20
335.75394622
 30
0.0
 11
429.54879211
 21
335.75394622
 31
0.0
  0
LINE
  5
1437
100
AcDbEntity
  8
0
100
AcDbLine
 10
429.54879211
 20
335.75394622
 30
0.0
 11
413.06587445
 21
335.75394622
 31
0.0
  0
CIRCLE
  5
1481
100
AcDbEntity
  8
0
100
AcDbCircle
 10
77.0
 20
13.0
 30
0.0
 40
5.5
  0
CIRCLE
  5
1482
100
AcDbEntity
  8
0
100
AcDbCircle
 10
40.0
 20
13.0
 30
0.0
 40
5.5
  0
CIRCLE
  5
1483
100
AcDbEntity
  8
0
100
AcDbCircle
 10
114.0
 20
13.0
 30
0.0
 40
5.5
  0
CIRCLE
  5
1484
100
AcDbEntity
  8
0
100
AcDbCircle
 10
151.0
 20
13.0
 30
0.0
 40
5.5
  0
LINE
  5
1486
100
AcDbEntity
  8
0
100
AcDbLine
 10
181.92037442
 20
-0.0856734
 30
0.0
 11
181.92037442
 21
-0.0856734
 31
0.0
  0
LINE
  5
148B
100
AcDbEntity
  8
0
100
AcDbLine
 10
181.92037442
 20
-0.0856734
 30
0.0
 11
350.56755005
 21
22.50458261
 31
0.0
  0
CIRCLE
  5
1496
100
AcDbEntity
  8
0
100
AcDbCircle
 10
188.0
 20
13.84452487
 30
0.0
 40
5.5
  0
CIRCLE
  5
1497
100
AcDbEntity
  8
0
100
AcDbCircle
 10
225.0
 20
18.80066759
 30
0.0
 40
5.5
  0
CIRCLE
  5
1498
100
AcDbEntity
  8
0
100
AcDbCircle
 10
262.0
 20
23.75681031
 30
0.0
 40
5.5
  0
CIRCLE
  5
1499
100
AcDbEntity
  8
0
100
AcDbCircle
 10
299.0
 20
28.71295304
 30
0.0
 40
5.5
  0
CIRCLE
  5
149A
100
AcDbEntity
  8
0
100
AcDbCircle
 10
336.0
 20
33.66909576
 30
0.0
 40
5.5
  0
CIRCLE
  5
14B1
100
AcDbEntity
  8
0
100
AcDbCircle
 10
336.0
 20
251.75356147
 30
0.0
 40
5.5
  0
CIRCLE
  5
14B2
100
AcDbEntity
  8
0
100
AcDbCircle
 10
299.0
 20
256.84680916
 30
0.0
 40
5.5
  0
CIRCLE
  5
14B3
100
AcDbEntity
  8
0
100
AcDbCircle
 10
262.0
 20
261.94005685
 30
0.0
 40
5.5
  0
CIRCLE
  5
14B4
100
AcDbEntity
  8
0
100
AcDbCircle
 10
225.0
 20
267.03330455
 30
0.0
 40
5.5
  0
CIRCLE
  5
14B5
100
AcDbEntity
  8
0
100
AcDbCircle
 10
188.0
 20
272.12655224
 30
0.0
 40
5.5
  0
CIRCLE
  5
14B6
100
AcDbEntity
  8
0
100
AcDbCircle
 10
40.0
 20
273.0
 30
0.0
 40
5.5
  0
CIRCLE
  5
14B7
100
AcDbEntity
  8
0
100
AcDbCircle
 10
77.0
 20
273.0
 30
0.0
 40
5.5
  0
CIRCLE
  5
14B8
100
AcDbEntity
  8
0
100
AcDbCircle
 10
114.0
 20
273.0
 30
0.0
 40
5.5
  0
CIRCLE
  5
14B9
100
AcDbEntity
  8
0
100
AcDbCircle
 10
151.0
 20
273.0
 30
0.0
 40
5.5
  0
CIRCLE
  5
14BB
100
AcDbEntity
  8
0
100
AcDbCircle
 10
13.0
 20
246.0
 30
0.0
 40
5.5
  0
CIRCLE
  5
14BC
100
AcDbEntity
  8
0
100
AcDbCircle
 10
13.0
 20
209.0
 30
0.0
 40
5.5
  0
CIRCLE
  5
14BD
100
AcDbEntity
  8
0
100
AcDbCircle
 10
13.0
 20
40.0
 30
0.0
 40
5.5
  0
CIRCLE
  5
14BE
100
AcDbEntity
  8
0
100
AcDbCircle
 10
13.0
 20
77.0
 30
0.0
 40
5.5
  0
LINE
  5
14C2
100
AcDbEntity
  8
0
100
AcDbLine
 10
37.5
 20
273.0
 30
0.0
 11
42.5
 21
273.0
 31
0.0
  0
LINE
  5
14C3
100
AcDbEntity
  8
0
100
AcDbLine
 10
40.0
 20
270.5
 30
0.0
 11
40.0
 21
275.5
 31
0.0
  0
LINE
  5
14C4
100
AcDbEntity
  8
0
100
AcDbLine
 10
74.5
 20
273.0
 30
0.0
 11
79.5
 21
273.0
 31
0.0
  0
LINE
  5
14C5
100
AcDbEntity
  8
0
100
AcDbLine
 10
77.0
 20
270.5
 30
0.0
 11
77.0
 21
275.5
 31
0.0
  0
LINE
  5
14C6
100
AcDbEntity
  8
0
100
AcDbLine
 10
111.5
 20
273.0
 30
0.0
 11
116.5
 21
273.0
 31
0.0
  0
LINE
  5
14C7
100
AcDbEntity
  8
0
100
AcDbLine
 10
114.0
 20
270.5
 30
0.0
 11
114.0
 21
275.5
 31
0.0
  0
LINE
  5
14C8
100
AcDbEntity
  8
0
100
AcDbLine
 10
148.5
 20
273.0
 30
0.0
 11
153.5
 21
273.0
 31
0.0
  0
LINE
  5
14C9
100
AcDbEntity
  8
0
100
AcDbLine
 10
151.0
 20
270.5
 30
0.0
 11
151.0
 21
275.5
 31
0.0
  0
LINE
  5
14CA
100
AcDbEntity
  8
0
100
AcDbLine
 10
185.5
 20
272.12655224
 30
0.0
 11
190.5
 21
272.12655224
 31
0.0
  0
LINE
  5
14CB
100
AcDbEntity
  8
0
100
AcDbLine
 10
188.0
 20
269.62655224
 30
0.0
 11
188.0
 21
274.62655224
 31
0.0
  0
LINE
  5
14CC
100
AcDbEntity
  8
0
100
AcDbLine
 10
222.5
 20
267.03330455
 30
0.0
 11
227.5
 21
267.03330455
 31
0.0
  0
LINE
  5
14CD
100
AcDbEntity
  8
0
100
AcDbLine
 10
225.0
 20
264.53330455
 30
0.0
 11
225.0
 21
269.53330455
 31
0.0
  0
LINE
  5
14CE
100
AcDbEntity
  8
0
100
AcDbLine
 10
259.5
 20
261.94005685
 30
0.0
 11
264.5
 21
261.94005685
 31
0.0
  0
LINE
  5
14CF
100
AcDbEntity
  8
0
100
AcDbLine
 10
262.0
 20
259.44005685
 30
0.0
 11
262.0
 21
264.44005685
 31
0.0
  0
LINE
  5
14D0
100
AcDbEntity
  8
0
100
AcDbLine
 10
296.5
 20
256.84680916
 30
0.0
 11
301.5
 21
256.84680916
 31
0.0
  0
LINE
  5
14D1
100
AcDbEntity
  8
0
100
AcDbLine
 10
299.0
 20
254.34680916
 30
0.0
 11
299.0
 21
259.34680916
 31
0.0
  0
LINE
  5
14D2
100
AcDbEntity
  8
0
100
AcDbLine
 10
333.5
 20
251.75356147
 30
0.0
 11
338.5
 21
251.75356147
 31
0.0
  0
LINE
  5
14D3
100
AcDbEntity
  8
0
100
AcDbLine
 10
336.0
 20
249.25356147
 30
0.0
 11
336.0
 21
254.25356147
 31
0.0
  0
LINE
  5
14D4
100
AcDbEntity
  8
0
100
AcDbLine
 10
10.5
 20
246.0
 30
0.0
 11
15.5
 21
246.0
 31
0.0
  0
LINE
  5
14D5
100
AcDbEntity
  8
0
100
AcDbLine
 10
13.0
 20
243.5
 30
0.0
 11
13.0
 21
248.5
 31
0.0
  0
LINE
  5
14D6
100
AcDbEntity
  8
0
100
AcDbLine
 10
10.5
 20
209.0
 30
0.0
 11
15.5
 21
209.0
 31
0.0
  0
LINE
  5
14D7
100
AcDbEntity
  8
0
100
AcDbLine
 10
13.0
 20
206.5
 30
0.0
 11
13.0
 21
211.5
 31
0.0
  0
LINE
  5
14D8
100
AcDbEntity
  8
0
100
AcDbLine
 10
10.5
 20
77.0
 30
0.0
 11
15.5
 21
77.0
 31
0.0
  0
LINE
  5
14D9
100
AcDbEntity
  8
0
100
AcDbLine
 10
13.0
 20
74.5
 30
0.0
 11
13.0
 21
79.5
 31
0.0
  0
LINE
  5
14DA
100
AcDbEntity
  8
0
100
AcDbLine
 10
10.5
 20
40.0
 30
0.0
 11
15.5
 21
40.0
 31
0.0
  0
LINE
  5
14DB
100
AcDbEntity
  8
0
100
AcDbLine
 10
13.0
 20
37.5
 30
0.0
 11
13.0
 21
42.5
 31
0.0
  0
LINE
  5
14DC
100
AcDbEntity
  8
0
100
AcDbLine
 10
37.5
 20
13.0
 30
0.0
 11
42.5
 21
13.0
 31
0.0
  0
LINE
  5
14DD
100
AcDbEntity
  8
0
100
AcDbLine
 10
40.0
 20
10.5
 30
0.0
 11
40.0
 21
15.5
 31
0.0
  0
LINE
  5
14DE
100
AcDbEntity
  8
0
100
AcDbLine
 10
74.5
 20
13.0
 30
0.0
 11
79.5
 21
13.0
 31
0.0
  0
LINE
  5
14DF
100
AcDbEntity
  8
0
100
AcDbLine
 10
77.0
 20
10.5
 30
0.0
 11
77.0
 21
15.5
 31
0.0
  0
LINE
  5
14E0
100
AcDbEntity
  8
0
100
AcDbLine
 10
111.5
 20
13.0
 30
0.0
 11
116.5
 21
13.0
 31
0.0
  0
LINE
  5
14E1
100
AcDbEntity
  8
0
100
AcDbLine
 10
114.0
 20
10.5
 30
0.0
 11
114.0
 21
15.5
 31
0.0
  0
LINE
  5
14E2
100
AcDbEntity
  8
0
100
AcDbLine
 10
148.5
 20
13.0
 30
0.0
 11
153.5
 21
13.0
 31
0.0
  0
LINE
  5
14E3
100
AcDbEntity
  8
0
100
AcDbLine
 10
151.0
 20
10.5
 30
0.0
 11
151.0
 21
15.5
 31
0.0
  0
LINE
  5
14E4
100
AcDbEntity
  8
0
100
AcDbLine
 10
185.5
 20
13.84452487
 30
0.0
 11
190.5
 21
13.84452487
 31
0.0
  0
LINE
  5
14E5
100
AcDbEntity
  8
0
100
AcDbLine
 10
188.0
 20
11.34452487
 30
0.0
 11
188.0
 21
16.34452487
 31
0.0
  0
LINE
  5
14E6
100
AcDbEntity
  8
0
100
AcDbLine
 10
222.5
 20
18.80066759
 30
0.0
 11
227.5
 21
18.80066759
 31
0.0
  0
LINE
  5
14E7
100
AcDbEntity
  8
0
100
AcDbLine
 10
225.0
 20
16.30066759
 30
0.0
 11
225.0
 21
21.30066759
 31
0.0
  0
LINE
  5
14E8
100
AcDbEntity
  8
0
100
AcDbLine
 10
259.5
 20
23.75681031
 30
0.0
 11
264.5
 21
23.75681031
 31
0.0
  0
LINE
  5
14E9
100
AcDbEntity
  8
0
100
AcDbLine
 10
262.0
 20
21.25681031
 30
0.0
 11
262.0
 21
26.25681031
 31
0.0
  0
LINE
  5
14EA
100
AcDbEntity
  8
0
100
AcDbLine
 10
296.5
 20
28.71295304
 30
0.0
 11
301.5
 21
28.71295304
 31
0.0
  0
LINE
  5
14EB
100
AcDbEntity
  8
0
100
AcDbLine
 10
299.0
 20
26.21295304
 30
0.0
 11
299.0
 21
31.21295304
 31
0.0
  0
LINE
  5
14EC
100
AcDbEntity
  8
0
100
AcDbLine
 10
333.5
 20
33.66909576
 30
0.0
 11
338.5
 21
33.66909576
 31
0.0
  0
LINE
  5
14ED
100
AcDbEntity
  8
0
100
AcDbLine
 10
336.0
 20
31.16909576
 30
0.0
 11
336.0
 21
36.16909576
 31
0.0
  0
DIMENSION
  5
14EE
100
AcDbEntity
  8
0
100
AcDbDimension
  2
*D50
 10
40.0
 20
310.80309023
 30
0.0
 11
20.0
 21
313.92809023
 31
0.0
  3
ISO-25
100
AcDbAlignedDimension
 13
0.0
 23
227.84723627
 33
0.0
 14
40.0
 24
273.0
 34
0.0
100
AcDbRotatedDimension
  0
DIMENSION
  5
14FB
100
AcDbEntity
  8
0
100
AcDbDimension
  2
*D51
 10
77.0
 20
320.07510647
 30
0.0
 11
38.5
 21
323.20010647
 31
0.0
  3
ISO-25
100
AcDbAlignedDimension
 13
0.0
 23
227.84723627
 33
0.0
 14
77.0
 24
273.0
 34
0.0
100
AcDbRotatedDimension
  0
DIMENSION
  5
1508
100
AcDbEntity
  8
0
100
AcDbDimension
  2
*D52
 10
114.0
 20
329.09652783
 30
0.0
 11
57.0
 21
332.22152783
 31
0.0
  3
ISO-25
100
AcDbAlignedDimension
 13
0.0
 23
227.84723627
 33
0.0
 14
114.0
 24
273.0
 34
0.0
100
AcDbRotatedDimension
  0
DIMENSION
  5
1515
100
AcDbEntity
  8
0
100
AcDbDimension
  2
*D53
 10
151.0
 20
338.29320672
 30
0.0
 11
75.5
 21
341.41820672
 31
0.0
  3
ISO-25
100
AcDbAlignedDimension
 13
0.0
 23
227.84723627
 33
0.0
 14
151.0
 24
273.0
 34
0.0
100
AcDbRotatedDimension
  0
DIMENSION
  5
1522
100
AcDbEntity
  8
0
100
AcDbDimension
  2
*D54
 10
188.0
 20
347.31462808
 30
0.0
 11
94.0
 21
350.43962808
 31
0.0
  3
ISO-25
100
AcDbAlignedDimension
 13
0.0
 23
227.84723627
 33
0.0
 14
188.0
 24
272.12655224
 34
0.0
100
AcDbRotatedDimension
  0
DIMENSION
  5
152F
100
AcDbEntity
  8
0
100
AcDbDimension
  2
*D55
 10
225.0
 20
357.33843009
 30
0.0
 11
112.5
 21
360.46343009
 31
0.0
  3
ISO-25
100
AcDbAlignedDimension
 13
0.0
 23
227.84723627
 33
0.0
 14
225.0
 24
267.03330455
 34
0.0
100
AcDbRotatedDimension
  0
DIMENSION
  5
153C
100
AcDbEntity
  8
0
100
AcDbDimension
  2
*D56
 10
262.0
 20
366.35985145
 30
0.0
 11
131.0
 21
369.48485145
 31
0.0
  3
ISO-25
100
AcDbAlignedDimension
 13
0.0
 23
227.84723627
 33
0.0
 14
262.0
 24
261.94005685
 34
0.0
100
AcDbRotatedDimension
  0
DIMENSION
  5
1549
100
AcDbEntity
  8
0
100
AcDbDimension
  2
*D57
 10
299.0
 20
376.88484322
 30
0.0
 11
149.5
 21
380.00984322
 31
0.0
  3
ISO-25
100
AcDbAlignedDimension
 13
0.0
 23
227.84723627
 33
0.0
 14
299.0
 24
256.84680916
 34
0.0
100
AcDbRotatedDimension
  0
DIMENSION
  5
1556
100
AcDbEntity
  8
0
100
AcDbDimension
  2
*D58
 10
336.0
 20
386.40745545
 30
0.0
 11
168.0
 21
389.53245545
 31
0.0
  3
ISO-25
100
AcDbAlignedDimension
 13
0.0
 23
227.84723627
 33
0.0
 14
336.0
 24
251.75356147
 34
0.0
100
AcDbRotatedDimension
  0
DIMENSION
  5
15E5
100
AcDbEntity
  8
0
100
AcDbDimension
  2
*D59
 10
-20.55969491
 20
273.0
 30
0.0
 11
-23.68469491
 21
279.5
 31
0.0
  3
ISO-25
100
AcDbAlignedDimension
 13
25.0
 23
286.0
 33
0.0
 14
13.0
 24
273.0
 34
0.0
 50
90.0
100
AcDbRotatedDimension
  0
DIMENSION
  5
15F2
100
AcDbEntity
  8
0
100
AcDbDimension
  2
*D60
 10
-30.94973567
 20
246.0
 30
0.0
 11
-34.07473567
 21
266.0
 31
0.0
  3
ISO-25
100
AcDbAlignedDimension
 13
25.0
 23
286.0
 33
0.0
 14
13.0
 24
246.0
 34
0.0
 50
90.0
100
AcDbRotatedDimension
  0
DIMENSION
  5
15FF
100
AcDbEntity
  8
0
100
AcDbDimension
  2
*D61
 10
-40.51950971
 20
209.0
 30
0.0
 11
-43.64450971
 21
247.5
 31
0.0
  3
ISO-25
100
AcDbAlignedDimension
 13
25.0
 23
286.0
 33
0.0
 14
13.0
 24
209.0
 34
0.0
 50
90.0
100
AcDbRotatedDimension
  0
ARC
  5
16C2
100
AcDbEntity
  8
0
100
AcDbCircle
 10
343.0
 20
207.0
 30
0.0
 40
57.0
100
AcDbArc
 50
0.0
 51
82.07557442
  0
DIMENSION
  5
16C3
100
AcDbEntity
  8
0
100
AcDbDimension
  2
*D62
 10
343.0
 20
207.0
 30
0.0
 11
386.75329658
 21
267.07448622
 31
0.0
 70
     132
  3
ISO-25
100
AcDbRadialDimension
 15
376.55726225
 25
253.07504911
 35
0.0
 40
0.0
1001
ACAD
1000
DSTYLE
1002
{
1070
     288
1070
       1
1002
}
  0
LINE
  5
16CD
100
AcDbEntity
  8
0
100
AcDbLine
 10
340.5
 20
207.0
 30
0.0
 11
345.5
 21
207.0
 31
0.0
  0
LINE
  5
16CE
100
AcDbEntity
  8
0
100
AcDbLine
 10
343.0
 20
204.5
 30
0.0
 11
343.0
 21
209.5
 31
0.0
  0
DIMENSION
  5
16CF
100
AcDbEntity
  8
0
100
AcDbDimension
  2
*D63
 10
448.92493181
 20
207.0
 30
0.0
 11
445.79993181
 21
175.0
 31
0.0
  3
ISO-25
100
AcDbAlignedDimension
 13
435.81953125
 23
143.0
 33
0.0
 14
343.0
 24
207.0
 34
0.0
 50
90.0
100
AcDbRotatedDimension
  0
DIMENSION
  5
16DC
100
AcDbEntity
  8
0
100
AcDbDimension
  2
*D64
 10
343.0
 20
395.95619964
 30
0.0
 11
171.5
 21
399.08119964
 31
0.0
  3
ISO-25
100
AcDbAlignedDimension
 13
0.0
 23
227.84723627
 33
0.0
 14
343.0
 24
207.0
 34
0.0
100
AcDbRotatedDimension
  0
DIMENSION
  5
16FB
100
AcDbEntity
  8
0
100
AcDbDimension
  2
*D65
 10
168.0399393
 20
286.0
 30
0.0
 11
164.49827264
 21
296.20833333
 31
0.0
  3
ISO-25
100
AcDbAlignedDimension
 13
188.0
 23
272.12655224
 33
0.0
 14
182.545
 24
286.0
 34
0.0
 50
90.0
100
AcDbRotatedDimension
  0
DIMENSION
  5
1709
100
AcDbEntity
  8
0
100
AcDbDimension
  2
*D66
 10
206.57556296
 20
286.0
 30
0.0
 11
206.57556296
 21
297.94068134
 31
0.0
 70
     128
  3
ISO-25
100
AcDbAlignedDimension
 13
225.0
 23
267.03330455
 33
0.0
 14
182.545
 24
286.0
 34
0.0
 50
90.0
100
AcDbRotatedDimension
  0
DIMENSION
  5
1716
100
AcDbEntity
  8
0
100
AcDbDimension
  2
*D67
 10
242.41204609
 20
286.0
 30
0.0
 11
242.41204609
 21
297.77448215
 31
0.0
 70
     128
  3
ISO-25
100
AcDbAlignedDimension
 13
262.0
 23
261.94005685
 33
0.0
 14
183.17
 24
286.0
 34
0.0
 50
90.0
100
AcDbRotatedDimension
  0
DIMENSION
  5
172C
100
AcDbEntity
  8
0
100
AcDbDimension
  2
*D68
 10
283.37742224
 20
286.0
 30
0.0
 11
283.37742224
 21
299.43646963
 31
0.0
 70
     128
  3
ISO-25
100
AcDbAlignedDimension
 13
299.0
 23
256.84680916
 33
0.0
 14
245.95371276
 24
286.0
 34
0.0
 50
90.0
100
AcDbRotatedDimension
  0
DIMENSION
  5
1739
100
AcDbEntity
  8
0
100
AcDbDimension
  2
*D69
 10
317.63498733
 20
286.0
 30
0.0
 11
317.63498733
 21
298.93787316
 31
0.0
 70
     128
  3
ISO-25
100
AcDbAlignedDimension
 13
336.0
 23
251.75356147
 33
0.0
 14
284.86764517
 24
286.0
 34
0.0
 50
90.0
100
AcDbRotatedDimension
  0
ENDSEC
  0
SECTION
  2
OBJECTS
  0
DICTIONARY
  5
C
100
AcDbDictionary
  3
ACAD_GROUP
350
D
  3
ACAD_MLINESTYLE
350
17
  0
DICTIONARY
  5
D
102
{ACAD_REACTORS
330
C
102
}
100
AcDbDictionary
  0
DICTIONARY
  5
17
102
{ACAD_XDICTIONARY
360
1A99
102
}
102
{ACAD_REACTORS
330
C
102
}
100
AcDbDictionary
  3
STANDARD
350
18
  0
MLINESTYLE
  5
18
102
{ACAD_REACTORS
330
17
102
}
100
AcDbMlineStyle
  2
STANDARD
 70
       0
  3

 62
     256
 51
90.0
 52
90.0
 71
       2
 49
0.5
 62
     256
  6
BYLAYER
 49
-0.5
 62
     256
  6
BYLAYER
  0
DICTIONARY
  5
19
102
{ACAD_REACTORS
330
C
102
}
100
AcDbDictionary
  0
DICTIONARY
  5
1A
102
{ACAD_XDICTIONARY
360
1A9B
102
}
102
{ACAD_REACTORS
330
C
102
}
100
AcDbDictionary
  3
LAYOUT1
350
1E
  3
LAYOUT2
350
26
  3
MODEL
350
22
  0
DICTIONARY
  5
198D
100
AcDbDictionary
  3
ACAD_LAYOUTSELFREF
350
1A9E
  3
ACAD_XREC_ROUNDTRIP
350
1A69
  0
DICTIONARY
  5
198F
100
AcDbDictionary
  3
ACAD_LAYOUTSELFREF
350
1A9F
  3
ACAD_XREC_ROUNDTRIP
350
1A6A
  0
DICTIONARY
  5
1991
100
AcDbDictionary
  3
ACAD_LAYOUTSELFREF
350
1A9D
  3
ACAD_XREC_ROUNDTRIP
350
1A6B
  0
XRECORD
  5
1A69
102
{ACAD_REACTORS
330
198D
102
}
100
AcDbXrecord
102
EXTNAMES
  1
*MODEL_SPACE
  2
*Model_Space
  0
XRECORD
  5
1A6A
102
{ACAD_REACTORS
330
198F
102
}
100
AcDbXrecord
102
EXTNAMES
  1
*PAPER_SPACE
  2
*Paper_Space
  0
XRECORD
  5
1A6B
102
{ACAD_REACTORS
330
1991
102
}
100
AcDbXrecord
102
EXTNAMES
  1
*PAPER_SPACE0
  2
*Paper_Space0
  0
DICTIONARY
  5
1A6C
100
AcDbDictionary
  3
ACAD_XREC_ROUNDTRIP
350
1A6D
  0
XRECORD
  5
1A6D
102
{ACAD_REACTORS
330
1A6C
102
}
100
AcDbXrecord
102
EXTNAMES
  1
DEFPOINTS
  2
Defpoints
102
PLOTBIT
  0
DICTIONARY
  5
1A6E
100
AcDbDictionary
  3
ACAD_XREC_ROUNDTRIP
350
1A6F
  0
XRECORD
  5
1A6F
102
{ACAD_REACTORS
330
1A6E
102
}
100
AcDbXrecord
102
EXTNAMES
  1
BYBLOCK
  2
ByBlock
  0
DICTIONARY
  5
1A70
100
AcDbDictionary
  3
ACAD_XREC_ROUNDTRIP
350
1A71
  0
XRECORD
  5
1A71
102
{ACAD_REACTORS
330
1A70
102
}
100
AcDbXrecord
102
EXTNAMES
  1
BYLAYER
  2
ByLayer
  0
DICTIONARY
  5
1A72
100
AcDbDictionary
  3
ACAD_XREC_ROUNDTRIP
350
1A73
  0
XRECORD
  5
1A73
102
{ACAD_REACTORS
330
1A72
102
}
100
AcDbXrecord
102
EXTNAMES
  1
CONTINUOUS
  2
Continuous
  0
DICTIONARY
  5
1A74
100
AcDbDictionary
  3
ACAD_XREC_ROUNDTRIP
350
1A75
  0
XRECORD
  5
1A75
102
{ACAD_REACTORS
330
1A74
102
}
100
AcDbXrecord
102
EXTNAMES
  1
STANDARD
  2
Standard
  0
DICTIONARY
  5
1A76
100
AcDbDictionary
  3
ACAD_XREC_ROUNDTRIP
350
1A77
  0
XRECORD
  5
1A77
102
{ACAD_REACTORS
330
1A76
102
}
100
AcDbXrecord
102
EXTNAMES
  1
*ACTIVE
  2
*Active
102
UCS
 74
       0
 71
       1
 10
0.0
 20
0.0
 30
0.0
 10
1.0
 20
0.0
 30
0.0
 10
0.0
 20
1.0
 30
0.0
146
0.0
 79
       0
102
VIEW
  0
DICTIONARY
  5
1A99
100
AcDbDictionary
  3
ACAD_XREC_ROUNDTRIP
350
1A9A
  0
XRECORD
  5
1A9A
102
{ACAD_REACTORS
330
1A99
102
}
100
AcDbXrecord
102
EXTNAMES
  1
STANDARD
  2
Standard
  0
DICTIONARY
  5
1A9B
100
AcDbDictionary
  3
ACAD_XREC_ROUNDTRIP
350
1A9C
  0
XRECORD
  5
1A9C
102
{ACAD_REACTORS
330
1A9B
102
}
100
AcDbXrecord
102
EXTNAMES
  1
LAYOUT1
  2
Layout1
  1
LAYOUT2
  2
Layout2
  1
MODEL
  2
Model
  0
XRECORD
  5
1A9D
102
{ACAD_REACTORS
330
1991
102
}
100
AcDbXrecord
340
1B
  0
XRECORD
  5
1A9E
102
{ACAD_REACTORS
330
198D
102
}
100
AcDbXrecord
340
1F
  0
XRECORD
  5
1A9F
102
{ACAD_REACTORS
330
198F
102
}
100
AcDbXrecord
340
23
  0
DICTIONARY
  5
1AA0
100
AcDbDictionary
  3
ACAD_XREC_ROUNDTRIP
350
1AA1
  0
XRECORD
  5
1AA1
102
{ACAD_REACTORS
330
1AA0
102
}
100
AcDbXrecord
102
ACADR14ROUNDTRIP
1000
DSTYLE
1002
{
1070
     179
 70
       3
1070
     278
 70
      44
1002
}
  0
DICTIONARY
  5
1AA2
100
AcDbDictionary
  3
ACAD_XREC_ROUNDTRIP
350
1AA3
  0
XRECORD
  5
1AA3
102
{ACAD_REACTORS
330
1AA2
102
}
100
AcDbXrecord
102
UCS
 74
       0
 71
       1
 10
0.0
 20
0.0
 30
0.0
 10
1.0
 20
0.0
 30
0.0
 10
0.0
 20
1.0
 30
0.0
146
0.0
 79
       0
102
VIEW
  0
DICTIONARY
  5
1AA4
100
AcDbDictionary
  3
ACAD_XREC_ROUNDTRIP
350
1AA5
  0
XRECORD
  5
1AA5
102
{ACAD_REACTORS
330
1AA4
102
}
100
AcDbXrecord
102
UCS
 74
       0
 71
       1
 10
0.0
 20
0.0
 30
0.0
 10
1.0
 20
0.0
 30
0.0
 10
0.0
 20
1.0
 30
0.0
146
0.0
 79
       0
102
VIEW
  0
DICTIONARY
  5
1ACD
100
AcDbDictionary
  3
ACAD_XREC_ROUNDTRIP
350
1ACE
  0
XRECORD
  5
1ACE
102
{ACAD_REACTORS
330
1ACD
102
}
100
AcDbXrecord
102
UCS
 74
       0
 71
       1
 10
0.0
 20
0.0
 30
0.0
 10
1.0
 20
0.0
 30
0.0
 10
0.0
 20
1.0
 30
0.0
146
0.0
 79
       0
102
VIEW
  0
DICTIONARY
  5
1ACF
100
AcDbDictionary
  3
ACAD_XREC_ROUNDTRIP
350
1AD0
  0
XRECORD
  5
1AD0
102
{ACAD_REACTORS
330
1ACF
102
}
100
AcDbXrecord
102
UCS
 74
       0
 71
       1
 10
0.0
 20
0.0
 30
0.0
 10
1.0
 20
0.0
 30
0.0
 10
0.0
 20
1.0
 30
0.0
146
0.0
 79
       0
102
VIEW
  0
DICTIONARY
  5
1AD3
102
{ACAD_REACTORS
330
C
102
}
100
AcDbDictionary
  0
ENDSEC
  0
EOF
